Kingcrow(Italy) - Phlegethon (2010)

View previous topic View next topic Go down

Kingcrow(Italy) - Phlegethon (2010)

Post by kelia99 on Thu Sep 16, 2010 4:45 pm

Kingcrow - Phlegethon (2010)



О группе можно почитать и послушать Здесь

Year: 2010
Origin: Italy
Genre: Progressive rock,Melodic Progressive Metal
Quality: (FLAC,cue,Log, cover,3% Recovery record)
Size: 491 mb
Благодарности Explodedу

Track List:

1. The Slide 02:38
2. Timeshift Box 03:47
3. Islands 05:18
4. The Great Silence 02:24
5. Lullaby For An Innocent 06:17
6. Evasion 05:04
7. Numb (Incipit, Climax & Coda) 08:48
8. Washing Out Memories 06:06
9. A New Life 04:57
10. Lovocaine 04:40
11. Fading Out Pt. III 06:23
12. Phlegethon 09:45

Total Time:




Line-up / Musicians :

-Diego Marchesi / Vocals
-Diego Cafolla / Guitar
-Ivan Nastasi / Guitar
-Angelo Orlando / Bass
-Thundra Caffola / Drums
-Cristian Della Polla / Keyboards
Log EAC:
Exact Audio Copy V0.99 prebeta 4 from 23. January 2008

Отчёт EAC об извлечении, выполненном 3. августа 2010, 14:32

Kingcrow / Phlegethon

Дисковод: HL-DT-STDVDRAM GSA-H66N Adapter: 3 ID: 0

Режим чтения : Достоверность
Использование точного потока : Да
Отключение кэша аудио : Да
Использование указателей C2 : Нет

Коррекция смещения при чтении : 667
Способность читать области Lead-in и Lead-out : Нет
Заполнение пропущенных сэмплов тишиной : Да
Удаление блоков с тишиной в начале и конце : Нет
При вычислениях CRC использовались нулевые сэмплы : Да
Интерфейс : Встроенный Win32-интерфейс для Win NT/2000

Выходной формат : Внутренние WAV-операции
Формат сэмплов : 44.100 Гц; 16 бит; стерео


TOC извлечённого CD

Трек | Старт | Длительность | Начальный сектор | Конечный сектор
---------------------------------------------------------------------
1 | 0:00.00 | 2:38.37 | 0 | 11886
2 | 2:38.37 | 3:47.17 | 11887 | 28928
3 | 6:25.54 | 5:17.43 | 28929 | 52746
4 | 11:43.22 | 2:24.02 | 52747 | 63548
5 | 14:07.24 | 6:16.60 | 63549 | 91808
6 | 20:24.09 | 5:03.57 | 91809 | 114590
7 | 25:27.66 | 8:47.64 | 114591 | 154179
8 | 34:15.55 | 6:06.21 | 154180 | 181650
9 | 40:22.01 | 4:56.40 | 181651 | 203890
10 | 45:18.41 | 4:40.25 | 203891 | 224915
11 | 49:58.66 | 6:22.59 | 224916 | 253624
12 | 56:21.50 | 9:44.74 | 253625 | 297498


Характеристики диапазона извлечения и сообщения об ошибках

Выбранный диапазон

Имя файла E:\Kingcrow - Phlegethon (2010)\Kingcrow - Phlegethon.wav

Пиковый уровень 99.6 %
Качество диапазона 100.0 %
CRC копии 17C0720E
Копирование... OK

Ошибок не произошло


AccurateRip: сводка

Трек 1 нет в базе данных
Трек 2 нет в базе данных
Трек 3 нет в базе данных
Трек 4 нет в базе данных
Трек 5 нет в базе данных
Трек 6 нет в базе данных
Трек 7 нет в базе данных
Трек 8 нет в базе данных
Трек 9 нет в базе данных
Трек 10 нет в базе данных
Трек 11 нет в базе данных
Трек 12 нет в базе данных

Ни одного трека нет в базе AccurateRip

Конец отчёта


Last edited by kelia99 on Sun Oct 03, 2010 4:07 am; edited 1 time in total

_________________
Fools all of us... Basketball
avatar
kelia99

Posts : 308
Join date : 2010-09-01
Age : 55

View user profile http://in-rock-lossless.moole.ru/

Back to top Go down

View previous topic View next topic Back to top

- Similar topics

 
Permissions in this forum:
You cannot reply to topics in this forum