Lunatic Soul - Lunatic Soul II (2010)

View previous topic View next topic Go down

Lunatic Soul - Lunatic Soul II (2010)

Post by kelia99 on Wed Oct 27, 2010 1:15 pm

Lunatic Soul - Lunatic Soul II (2010)



Душа одинокого человека, витающая в огромном городе. Полного огней и одновременно тёмного и холодного словно открытый космос. Километры проводов, гудящих в унисон с армией оловянных солдатиков, которые перемещаются с работы домой и наоборот. Стыки рельс, стучащие как сердце на излёте, пучки дорог, сбивающихся в стада на замысловатых перекрёстках. Мёртвая природа каменных джунглей, навивающая мысли об иллюзорности нашего мира, о кратковременности и запрограмированности жизни, о тоске и всеобщей агонии. Гуд метро, уносящего в туннели, которые пахнут жжёной резиной, змеи поездов. Гомо сапиенс, свободный и связанный, запихивающий в рот булку с котлетой в американской закусочной и отказывающийся верить в то, что его по жизни ведёт чья-то рука. Мечты и реальность, бессвязный бред и попытка красиво изобразить безобразие и несовершенство. Словно этот текст и эта музыка.

Мариуш Дуда не пытается прикидываться, извиваться ужом, настраивать всех на позитивный лад. Он словно поёт о своём, чувствуя аудиторию и странную местечковость Lunatic Soul. Произведения тонкого, экспрессивного, грустного, но не мрачного, тёмного, но не чёрного, чем-то близкого и одновременно невероятно далёкого от основного дела творческой жизни польского басиста и вокалиста Riverside. Последняя не устроила переворот в прогрессивной музыке, но стала одним из самых свежих веяний в возрождающемся стиле. На сей раз Дуда бросил атмосферу знакомого коллектива, захватив только клавишника. Добавил флейту, ударные, фортепьяно и другие инструменты, но оставив свой запоминающийся голос. Одновременного мягкий и экспрессивный. И играть поляки принялись практически эмбьентовый прог-рок, навеянный скандинавским пост-роком. В нём сочетание электроники, восточных мелодий, приятной грусти, тени Porcupine Tree без жёстких гитарных проходок Стивена Уилсона и Pink Floyd при отсутствии эклектики.
source: Hatebreeder

Lunatic Soul II, the second solo album from Mariusz Duda, the lead singer and creative force behind the post-progressive band Riverside, will be released on Kscope on October 25th but is now available to pre-order from the Kscope store. The first Lunatic Soul album was released to critical acclaim in 2008 and Duda has described the project as ‘a double album divided into two single ones by the period of two years’ anticipation.’

Origin: Poland
Genre: Crossover Progressive, Post-Riverside
Quality: (FLAC(track),cue,Log, Front cover,3% Recovery record)
Size: 319 mb
Uploated to: RapidShare
Source: arganat rutracker.org

Track List:

1. The In-Between Kingdom (6:48)
2. Otherwhere (2:48)
3. Suspended In Whiteness (7:56)
4. Asoulum (6:23)
5. Limbo (1:53)
6. Escape from ParadIce (4:39)
7. Transition (11:07)
8. Gravestone Hill (3:41)
9. Wanderings (5:28)

Total Time:50:43

Log EAC:
Exact Audio Copy V0.99 prebeta 5 from 4. May 2009

EAC extraction logfile from 23. October 2010, 20:27

Lunatic Soul / Lunatic Soul II

Used drive : PIONEER DVD-RW DVR-116D Adapter: 0 ID: 1

Read mode : Secure
Utilize accurate stream : Yes
Defeat audio cache : Yes
Make use of C2 pointers : No

Read offset correction : 96
Overread into Lead-In and Lead-Out : No
Fill up missing offset samples with silence : Yes
Delete leading and trailing silent blocks : No
Null samples used in CRC calculations : No
Used interface : Native Win32 interface for Win NT & 2000
Gap handling : Appended to previous track

Used output format : User Defined Encoder
Selected bitrate : 768 kBit/s
Quality : High
Add ID3 tag : No
Command line compressor : C:\Program Files\Exact Audio Copy\FLAC\FLAC.EXE
Additional command line options : -6 -V -T "ARTIST=%a" -T "TITLE=%t" -T "ALBUM=%g" -T "DATE=%y" -T "TRACKNUMBER=%n" -T "GENRE=%m" -T "COMMENT=%e" %s -o %d

TOC of the extracted CD

Track | Start | Length | Start sector | End sector
---------------------------------------------------------
1 | 0:00.00 | 6:48.14 | 0 | 30613
2 | 6:48.14 | 2:48.24 | 30614 | 43237
3 | 9:36.38 | 7:56.01 | 43238 | 78938
4 | 17:32.39 | 6:23.21 | 78939 | 107684
5 | 23:55.60 | 1:52.48 | 107685 | 116132
6 | 25:48.33 | 4:38.49 | 116133 | 137031
7 | 30:27.07 | 11:07.37 | 137032 | 187093
8 | 41:34.44 | 3:41.16 | 187094 | 203684
9 | 45:15.60 | 5:28.07 | 203685 | 228291

Track 1

Filename C:\Documents and Settings\Kitty\Music\Flac\Lunatic Soul II\Lunatic Soul\Lunatic Soul II\01 - The In-between Kingdom.wav

Pre-gap length 0:00:02.00

Peak level 98.8 %
Track quality 100.0 %
Test CRC AE20737D
Copy CRC AE20737D
Track not present in AccurateRip database
Copy OK

Track 2

Filename C:\Documents and Settings\Kitty\Music\Flac\Lunatic Soul II\Lunatic Soul\Lunatic Soul II\02 - Otherwhere.wav

Peak level 98.8 %
Track quality 99.9 %
Test CRC F98D5235
Copy CRC F98D5235
Track not present in AccurateRip database
Copy OK

Track 3

Filename C:\Documents and Settings\Kitty\Music\Flac\Lunatic Soul II\Lunatic Soul\Lunatic Soul II\03 - Suspended In Whiteness.wav

Peak level 98.8 %
Track quality 100.0 %
Test CRC 7F287DEB
Copy CRC 7F287DEB
Track not present in AccurateRip database
Copy OK

Track 4

Filename C:\Documents and Settings\Kitty\Music\Flac\Lunatic Soul II\Lunatic Soul\Lunatic Soul II\04 - Asoulum.wav

Peak level 98.8 %
Track quality 100.0 %
Test CRC AF2E1C24
Copy CRC AF2E1C24
Track not present in AccurateRip database
Copy OK

Track 5

Filename C:\Documents and Settings\Kitty\Music\Flac\Lunatic Soul II\Lunatic Soul\Lunatic Soul II\05 - Limbo.wav

Peak level 98.8 %
Track quality 100.0 %
Test CRC 13CDE57B
Copy CRC 13CDE57B
Track not present in AccurateRip database
Copy OK

Track 6

Filename C:\Documents and Settings\Kitty\Music\Flac\Lunatic Soul II\Lunatic Soul\Lunatic Soul II\06 - Escape From Paradice.wav

Peak level 98.8 %
Track quality 100.0 %
Test CRC 58262972
Copy CRC 58262972
Track not present in AccurateRip database
Copy OK

Track 7

Filename C:\Documents and Settings\Kitty\Music\Flac\Lunatic Soul II\Lunatic Soul\Lunatic Soul II\07 - Transition.wav

Peak level 98.8 %
Track quality 100.0 %
Test CRC 4075C006
Copy CRC 4075C006
Track not present in AccurateRip database
Copy OK

Track 8

Filename C:\Documents and Settings\Kitty\Music\Flac\Lunatic Soul II\Lunatic Soul\Lunatic Soul II\08 - Gravestone Hill.wav

Peak level 98.8 %
Track quality 100.0 %
Test CRC 1839CFED
Copy CRC 1839CFED
Track not present in AccurateRip database
Copy OK

Track 9

Filename C:\Documents and Settings\Kitty\Music\Flac\Lunatic Soul II\Lunatic Soul\Lunatic Soul II\09 - Wanderings.wav

Peak level 98.8 %
Track quality 99.9 %
Test CRC 24A83C41
Copy CRC 24A83C41
Track not present in AccurateRip database
Copy OK

None of the tracks are present in the AccurateRip database

No errors occurred

End of status report

_________________
Fools all of us... Basketball
avatar
kelia99

Posts : 308
Join date : 2010-09-01
Age : 55

View user profile http://in-rock-lossless.moole.ru/

Back to top Go down

Re: Lunatic Soul - Lunatic Soul II (2010)

Post by atlan on Wed Oct 27, 2010 3:02 pm

Большое спасибо !

atlan

Posts : 56
Join date : 2010-09-08

View user profile

Back to top Go down

Re: Lunatic Soul - Lunatic Soul II (2010)

Post by yurek on Fri Oct 29, 2010 3:03 am

All scans of digipack and booklet added in 400 dpi
avatar
yurek

Posts : 45
Join date : 2010-09-01
Age : 62

View user profile

Back to top Go down

Re: Lunatic Soul - Lunatic Soul II (2010)

Post by Tower on Fri Oct 29, 2010 5:22 am

Спасибо! Сильный диск. Пожалуй, посильнее первого будет. Удовольствие от прослушивания - полное.
P.S. Эх, еще бы коврики для полноты картины Very Happy

Tower

Posts : 180
Join date : 2010-09-01
Age : 60
Location : Питер

View user profile

Back to top Go down

Re: Lunatic Soul - Lunatic Soul II (2010)

Post by Moebius on Wed Nov 24, 2010 2:53 am

Tower. I like Lunatic Soul II !!!
Thanks!!!!

Moebius

Posts : 37
Join date : 2010-09-03

View user profile

Back to top Go down

Re: Lunatic Soul - Lunatic Soul II (2010)

Post by Sponsored content


Sponsored content


Back to top Go down

View previous topic View next topic Back to top

- Similar topics

 
Permissions in this forum:
You cannot reply to topics in this forum