Goblin(Italy) - Rock Progressivo Italiano

View previous topic View next topic Go down

Goblin(Italy) - Rock Progressivo Italiano

Post by kelia99 on Sat Sep 18, 2010 2:50 am

Goblin - Profondo Rosso (1975) 2CD



Origin: Italy
Genre: Rock Progressivo Italiano
Quality: (FLAC,cue,Log,Cover,3% Recovery record)
Size: 505 Mb

Goblin — итальянская рок-группа. Изначально называлась Cherry Five и находилась под влиянием музыки Genesis and King Crimson. Результатом трудов Cherry Five стал единственный эпический альбом с одноименным названием. Потом группа изменила свое название на Goblin.

Симфоническая группа из Италии, которая приспособила их музыку к промышленности кино, главным образом кинофильмы ужаса с 70-ых. Выдающаяся работа клавиатуры, выполненная Клаудио Симонетти, является торговой маркой ГОБЛИНА. Большая часть их материала действительно тяжела и капризна, с прогрессивным чувством Floydian, и вообще довольно хороша.

Начинаясь с их первого "Профундо Rosso" ГОБЛИН очевидно лучше подходили для музыки музыки из кинофильма чем как предложение студии, и большинство их работы было в этой вене. Их превосходный второй "Ролик" - очень хороший альбом традиционного симфонического прогрессивного рока от итальянской группы. Вновь прибывшие группе будут хотеть исследовать свои объявленные альбомы музыки из кинофильма сначала, особенно "Profondo Rosso" и "Suspiria". "Существенные" работы ГОБЛИНА. Чрезвычайно рекомендуемый для поклонников музыки музыки из кинофильма.
Группа снова активна с новым альбомом, выпущенным в 2006.

Track List:

CD1:

1. Profondo rosso (3:45)
2. Death dies (4:37)
3. Mad puppet (6:30)
4. Wild session (5:40)
5. Deep shadows (5:45)
6. School at night (2:05)
7. Gianna (1:47)

Total Time: 28:50

CD2(bonus):

01. Mad Puppets Laughs (Opening Intro)
02. School At Night (Lullaby / Child Version)
03. Profondo Rosso (Jazz Source #1)
04. Profondo Rosso (Paura)
05. Profondo Rosso (Paura #2)
06. School At Night (Lullaby / Instrumental Version)
07. Profondo Rosso (Paura #3)
08. School At Night
09. Profondo Rosso (Paura #4)
10. School At Night (#2)
11. School At Night (Lullaby / Celesta Version)
12. Profondo Rosso (Paura #5)
13. Gianna (#2)
14. Death Dies (Film Version)
15. Profondo Rosso (Jazz Flute)
16. Profondo Rosso (Jazz Source #2)
17. Deep Shadows (Film Version)
18. Profondo Rosso (Paura #6)
19. Death Dies (Film Version #2)
20. Profondo Rosso (Jazz Source #3)
21. Deep Shadows (Film Version #2)
22. School At Night (Lullaby / Music Box Version)
23. Profondo Rosso (Jazz Source #4)
24. Deep Shadows (Film Version #3)
25. Death Dies (Film Version #3)
26. Profondo Rosso (Jazz Flute #2)
27. School At Night (Lullaby / Echo Version)
28. Profondo Rosso (Remix Version)
29. Profondo Rosso (Original Sound Effect)

Total Time: 56:58

Line-up Musicians:

- Maurizio Guarini / pianos, clavinet, pianet, Moog
- Agostino Marangolo / drums, percussion
- Massimo Morante / guitars
- Fabio Pignatelli / basses
- Claudio Simonetti / organ, piano, clavinet, Mini-Moog, strings
Log EAC CD1:
Exact Audio Copy V0.99 prebeta 5 from 4. May 2009

EAC extraction logfile from 3. June 2010, 10:58

Goblin / Profondo Rosso

Used drive : HL-DT-STDVDRAM GSA-H66N Adapter: 3 ID: 0

Read mode : Secure
Utilize accurate stream : Yes
Defeat audio cache : Yes
Make use of C2 pointers : No

Read offset correction : 667
Overread into Lead-In and Lead-Out : No
Fill up missing offset samples with silence : Yes
Delete leading and trailing silent blocks : No
Null samples used in CRC calculations : Yes
Used interface : Native Win32 interface for Win NT & 2000

Used output format : Internal WAV Routines
Sample format : 44.100 Hz; 16 Bit; Stereo


TOC of the extracted CD

Track | Start | Length | Start sector | End sector
---------------------------------------------------------
1 | 0:00.00 | 3:42.34 | 0 | 16683
2 | 3:42.34 | 4:03.26 | 16684 | 34934
3 | 7:45.60 | 6:22.63 | 34935 | 63647
4 | 14:08.48 | 4:58.08 | 63648 | 86005
5 | 19:06.56 | 5:46.28 | 86006 | 111983
6 | 24:53.09 | 2:07.20 | 111984 | 121528
7 | 27:00.29 | 1:50.17 | 121529 | 129795


Range status and errors

Selected range

Filename J:\Goblin - Profondo Rosso (1975) 2CD\CD1\Goblin - Profondo Rosso.wav

Peak level 100.0 %
Range quality 100.0 %
Copy CRC ED1F90BE
Copy OK

No errors occurred


AccurateRip summary

Track 1 not present in database
Track 2 not present in database
Track 3 not present in database
Track 4 not present in database
Track 5 not present in database
Track 6 not present in database
Track 7 not present in database

None of the tracks are present in the AccurateRip database

End of status report
Log EAC CD2:
Exact Audio Copy V0.99 prebeta 5 from 4. May 2009

EAC extraction logfile from 3. June 2010, 11:24

Goblin / Profondo Rosso(bonus CD)

Used drive : HL-DT-STDVDRAM GSA-H66N Adapter: 3 ID: 0

Read mode : Secure
Utilize accurate stream : Yes
Defeat audio cache : Yes
Make use of C2 pointers : No

Read offset correction : 667
Overread into Lead-In and Lead-Out : No
Fill up missing offset samples with silence : Yes
Delete leading and trailing silent blocks : No
Null samples used in CRC calculations : Yes
Used interface : Native Win32 interface for Win NT & 2000

Used output format : Internal WAV Routines
Sample format : 44.100 Hz; 16 Bit; Stereo


TOC of the extracted CD

Track | Start | Length | Start sector | End sector
---------------------------------------------------------
1 | 0:00.00 | 0:22.03 | 0 | 1652
2 | 0:22.03 | 2:17.38 | 1653 | 11965
3 | 2:39.41 | 1:14.06 | 11966 | 17521
4 | 3:53.47 | 1:48.73 | 17522 | 25694
5 | 5:42.45 | 1:01.17 | 25695 | 30286
6 | 6:43.62 | 2:16.42 | 30287 | 40528
7 | 9:00.29 | 1:27.10 | 40529 | 47063
8 | 10:27.39 | 2:30.11 | 47064 | 58324
9 | 12:57.50 | 1:04.74 | 58325 | 63198
10 | 14:02.49 | 0:53.21 | 63199 | 67194
11 | 14:55.70 | 2:30.03 | 67195 | 78447
12 | 17:25.73 | 0:40.09 | 78448 | 81456
13 | 18:06.07 | 2:14.12 | 81457 | 91518
14 | 20:20.19 | 2:43.55 | 91519 | 103798
15 | 23:03.74 | 0:45.49 | 103799 | 107222
16 | 23:49.48 | 5:15.02 | 107223 | 130849
17 | 29:04.50 | 1:54.70 | 130850 | 139469
18 | 30:59.45 | 2:21.67 | 139470 | 150111
19 | 33:21.37 | 2:43.55 | 150112 | 162391
20 | 36:05.17 | 0:36.66 | 162392 | 165157
21 | 36:42.08 | 1:48.18 | 165158 | 173275
22 | 38:30.26 | 2:47.05 | 173276 | 185805
23 | 41:17.31 | 0:28.39 | 185806 | 187944
24 | 41:45.70 | 0:33.71 | 187945 | 190490
25 | 42:19.66 | 2:19.05 | 190491 | 200920
26 | 44:38.71 | 0:37.14 | 200921 | 203709
27 | 45:16.10 | 2:26.29 | 203710 | 214688
28 | 47:42.39 | 5:13.58 | 214689 | 238221
29 | 52:56.22 | 4:01.74 | 238222 | 256370


Range status and errors

Selected range

Filename J:\Goblin - Profondo Rosso (1975) 2CD\CD2\Goblin - Profondo Rosso(bonus CD).wav

Peak level 100.0 %
Range quality 99.9 %
Copy CRC 6672AACF
Copy OK

No errors occurred


AccurateRip summary

Track 1 not present in database
Track 2 not present in database
Track 3 not present in database
Track 4 not present in database
Track 5 not present in database
Track 6 not present in database
Track 7 not present in database
Track 8 not present in database
Track 9 not present in database
Track 10 not present in database
Track 11 not present in database
Track 12 not present in database
Track 13 not present in database
Track 14 not present in database
Track 15 not present in database
Track 16 not present in database
Track 17 not present in database
Track 18 not present in database
Track 19 not present in database
Track 20 not present in database
Track 21 not present in database
Track 22 not present in database
Track 23 not present in database
Track 24 not present in database
Track 25 not present in database
Track 26 not present in database
Track 27 not present in database
Track 28 not present in database
Track 29 not present in database

None of the tracks are present in the AccurateRip database

End of status report


Last edited by kelia99 on Sun Oct 03, 2010 4:09 am; edited 1 time in total

_________________
Fools all of us... Basketball
avatar
kelia99

Posts : 308
Join date : 2010-09-01
Age : 56

View user profile http://in-rock-lossless.moole.ru/

Back to top Go down

Re: Goblin(Italy) - Rock Progressivo Italiano

Post by kelia99 on Sat Sep 18, 2010 2:54 am

Goblin - Roller (1976)



Origin: Italy
Genre: Rock Progressivo Italiano
Quality: (FLAC,cue,Log,Cover,3% Recovery record)
Size: 218 Mb

Track List:

1. Roller (4:38)
2. Aquaman (5:22)
3. Snip snap (3:37)
4. The snake awakens (3:27)
5. Goblin (11:10)
6. Dr. Frankenstein (6:00)

Total Time: 34:06

Line-up Musicians:

- Maurizio Guarini / keyboards, Moog
- Agostino Marangolo / drums, perc.
- Massimo Morante / guitars
- Fabio Pignatelli / basses
- Claudio Simonetti / keyboards, Moog
Log EAC:
Exact Audio Copy V0.99 prebeta 5 from 4. May 2009

EAC extraction logfile from 3. June 2010, 11:56

Goblin / Roller

Used drive : HL-DT-STDVDRAM GSA-H66N Adapter: 3 ID: 0

Read mode : Secure
Utilize accurate stream : Yes
Defeat audio cache : Yes
Make use of C2 pointers : No

Read offset correction : 667
Overread into Lead-In and Lead-Out : No
Fill up missing offset samples with silence : Yes
Delete leading and trailing silent blocks : No
Null samples used in CRC calculations : Yes
Used interface : Native Win32 interface for Win NT & 2000

Used output format : Internal WAV Routines
Sample format : 44.100 Hz; 16 Bit; Stereo


TOC of the extracted CD

Track | Start | Length | Start sector | End sector
---------------------------------------------------------
1 | 0:00.00 | 4:39.38 | 0 | 20962
2 | 4:39.38 | 5:22.34 | 20963 | 45146
3 | 10:01.72 | 3:36.37 | 45147 | 61383
4 | 13:38.34 | 3:27.54 | 61384 | 76962
5 | 17:06.13 | 11:07.51 | 76963 | 127038
6 | 28:13.64 | 5:52.17 | 127039 | 153455


Range status and errors

Selected range

Filename J:\GBL-R76\Goblin - Roller (1976)\Goblin - Roller.wav

Peak level 97.6 %
Range quality 100.0 %
Copy CRC 1F4BB531
Copy OK

No errors occurred


AccurateRip summary

Track 1 not present in database
Track 2 not present in database
Track 3 not present in database
Track 4 not present in database
Track 5 not present in database
Track 6 not present in database

None of the tracks are present in the AccurateRip database

End of status report

_________________
Fools all of us... Basketball
avatar
kelia99

Posts : 308
Join date : 2010-09-01
Age : 56

View user profile http://in-rock-lossless.moole.ru/

Back to top Go down

View previous topic View next topic Back to top

- Similar topics

 
Permissions in this forum:
You cannot reply to topics in this forum