Garybaldi ( Italy) - Rock Progressivo Italiano

View previous topic View next topic Go down

Garybaldi ( Italy) - Rock Progressivo Italiano

Post by kelia99 on Sat Sep 18, 2010 4:00 pm

Garybaldi - Nuda (1972)



Garybaldi biography
The Gleemen quartet from Genoa is rather a typical for Italian prog groups, generally avoiding the heavily slanted symphonic influences most of their countrymen were choosing and were relying on a heavy guitar-based sound and were often hard rocking. Their first album (1970) is still regarded nowadays as a gem from collectors all over the world, although it will surprise progheads a bit with its very 60's sound and major Hendrix influences, and absolutely stupendous artwork.

Having changed their name to a more Italian sounding name (Garybaldi being some hero of the late XIXth century in Liguria and neighbouring French Provence), they proceeded to record two further album with the same heavily slanted Hendrix influences even if the keyboards are also a good part of the sound). The first one sports an astounding and complex artwork by future Italian comix superstar Guido Crepax. Sidelong tracks are a common feature in those albums and they are self-indulgent, either.

Fosastti then disbanded the group, and with drummer/singer Cassinelli went on to form La Bambibanda E Melodia that released one record late 74. Guitarist Fossati has reformed the group (although he was the only original member) during the late 80's but the general sound was much bluesier and released one album.

Somehow their short career is almost parallel to Flea/Etna group (they also changed their name while retaining the same line-up), developing the same kind of unusual (for Italy) guitarey hard prog during the same years.


Year: 1972
Origin: Italy
Genre: Rock Progressivo Italiano
Quality: (FLAC,cue,Log, cover,3% Recovery record)
Size: 244 mb

Track List:

1. Maya Desnuda (6:08)
2. Decomposizione, Preludio E Pace (1:55)
3. 26 Febbraio 1700 (7:20)
4. L'Ultima Graziosa (5:22)
5. Moretto Da Brescia:
- a. Goffredo (6:15)
- b. Il Giardino Del Re (9:16)
- c. Dolce Come Sei Tu (5:19)

Total Time:41:37





Line-up / Musicians :

- Bambi Fossatti / guitars, vocals
- Angelo Traverso / bass
- Maurizio Cassinelli / drums, vocals
- Lio Marchi / keyboards

Log EAC:
Exact Audio Copy V0.99 prebeta 5 from 4. May 2009

Отчёт EAC об извлечении, выполненном 10. августа 2010, 21:27

Garybaldi / Nuda (IT)

Дисковод: HL-DT-STDVDRAM GSA-H66N Adapter: 3 ID: 0

Режим чтения : Достоверность
Использование точного потока : Да
Отключение кэша аудио : Да
Использование указателей C2 : Нет

Коррекция смещения при чтении : 667
Способность читать области Lead-in и Lead-out : Нет
Заполнение пропущенных сэмплов тишиной : Да
Удаление блоков с тишиной в начале и конце : Нет
При вычислениях CRC использовались нулевые сэмплы : Да
Интерфейс : Встроенный Win32-интерфейс для Win NT/2000

Выходной формат : Внутренние WAV-операции
Формат сэмплов : 44.100 Гц; 16 бит; стерео


TOC извлечённого CD

Трек | Старт | Длительность | Начальный сектор | Конечный сектор
---------------------------------------------------------------------
1 | 0:00.00 | 6:08.70 | 0 | 27669
2 | 6:08.70 | 1:55.02 | 27670 | 36296
3 | 8:03.72 | 7:17.05 | 36297 | 69076
4 | 15:21.02 | 5:22.71 | 69077 | 93297
5 | 20:43.73 | 6:17.42 | 93298 | 121614
6 | 27:01.40 | 9:16.19 | 121615 | 163333
7 | 36:17.59 | 5:19.53 | 163334 | 187311


Характеристики диапазона извлечения и сообщения об ошибках

Выбранный диапазон

Имя файла E:\Garybaldi - Nuda (1972)\Garybaldi - Nuda (IT).wav

Пиковый уровень 90.6 %
Качество диапазона 100.0 %
CRC копии C5D73EBD
Копирование... OK

Ошибок не произошло


AccurateRip: сводка

Трек 1 нет в базе данных
Трек 2 нет в базе данных
Трек 3 нет в базе данных
Трек 4 нет в базе данных
Трек 5 нет в базе данных
Трек 6 нет в базе данных
Трек 7 нет в базе данных

Ни одного трека нет в базе AccurateRip

Конец отчёта




##########################################################################################


Garybaldi - Astrolabio (1973)



Year: 1973
Origin: Italy
Genre: Rock Progressivo Italiano
Quality: (FLAC,cue,Log, cover,3% Recovery record)
Size: 216 mb

Track List:

1. Madre di Cose Perdute (20:30)
2. Sette? (21:18)

Total Time:41:55




Line-up / Musicians :

- Bambi Fossatti / guitars, vocals
- Angelo Traverso / bass
- Maurizio Cassinelli / drums, vocals
- Lio Marchi / keyboards

Log EAC:
Exact Audio Copy V0.99 prebeta 5 from 4. May 2009

Отчёт EAC об извлечении, выполненном 10. августа 2010, 22:08

Garybaldi / Astrolabio

Дисковод: HL-DT-STDVDRAM GSA-H66N Adapter: 3 ID: 0

Режим чтения : Достоверность
Использование точного потока : Да
Отключение кэша аудио : Да
Использование указателей C2 : Нет

Коррекция смещения при чтении : 667
Способность читать области Lead-in и Lead-out : Нет
Заполнение пропущенных сэмплов тишиной : Да
Удаление блоков с тишиной в начале и конце : Нет
При вычислениях CRC использовались нулевые сэмплы : Да
Интерфейс : Встроенный Win32-интерфейс для Win NT/2000

Выходной формат : Внутренние WAV-операции
Формат сэмплов : 44.100 Гц; 16 бит; стерео


TOC извлечённого CD

Трек | Старт | Длительность | Начальный сектор | Конечный сектор
---------------------------------------------------------------------
1 | 0:00.00 | 20:28.05 | 0 | 92104
2 | 20:28.05 | 21:27.52 | 92105 | 188681


Характеристики диапазона извлечения и сообщения об ошибках

Выбранный диапазон

Имя файла E:\Garybaldi - Astrolabio (1973)\Garybaldi - Astrolabio.wav

Пиковый уровень 100.0 %
Качество диапазона 99.9 %
CRC копии B06E1229
Копирование... OK

Ошибок не произошло


AccurateRip: сводка

Трек 1 нет в базе данных
Трек 2 нет в базе данных

Ни одного трека нет в базе AccurateRip

Конец отчёта


_________________
Fools all of us... Basketball
avatar
kelia99

Posts : 308
Join date : 2010-09-01
Age : 56

View user profile http://in-rock-lossless.moole.ru/

Back to top Go down

View previous topic View next topic Back to top

- Similar topics

 
Permissions in this forum:
You cannot reply to topics in this forum