Garden Wall(Italy) - Classic Prog-Metal & Art-Rock

View previous topic View next topic Go down

Garden Wall(Italy) - Classic Prog-Metal & Art-Rock

Post by kelia99 on Fri Sep 17, 2010 11:28 pm


DISCOGRAPHY:

1993 - "Principium"
1994 - "Path of Dreams"
1995 - "The Seduction of Madness"
1997 - "Chimica"
2002 - "Forget the Colours"
2004 - "Towards the Silence"

Garden Wall - одна из очень немногих современных групп, способных к постоянной трансформации своего стиля, уникального, впрочем, с самого начала. Шедеврами являются все без исключения альбомы группы, а динамика изменений стилистики выглядит следующим образом. На первом альбоме представлен ни с чем не сравнимый синтез Симфонического Арт Рока и Прог-Метала. Второй, "Path of Dreams", самый симфонический и, пожалуй, самый сложный альбом Гарденов. Прог-Метал с элементами Симфонического Арт-Рока является стилистикой "The Seduction of Madness". На "Chimica" снова представлен синтез Арт-Рока и Прог-Метала, который, однако, не имеет почти ничего общего со стилевой концепцией дебюта. Альбом - “Fotget the Colours” - это произведение Прог-Метала с элементами Классической Музыки - жанр, в котором работала в последние годы ее существования Германская группа Mekong Delta.Ну и последний “Towards the Silence”: Прог-Метал с элементами Симфонического Арт-Рока. И хотя Прог-Метал является важной составляющей большинства альбомов Garden Wall, почти все из них (кроме, возможно, "Forget the Colours") рекомендуются, прежде всего, наиболее "продвинутым" любителям Арт-Рока.

Garden Wall - Principium (1993)




Year: 1993
Origin: Italy
Genre: Classic Prog-Metal & Art-Rock
Quality: (FLAC,cue,Log,Cover,3% Recovery record)
Size: 333 Mb

Track List:

1. The Garden (05:59)
2. Silent Waves in a Raging Ocean (08:19)
3. The Giant and the Wise Man (07:29)
4. Wehwalt (03:44)
5. Ekpyrosis (13:32)
6. In the Dark (05:09)
7. Onde Radio (08:38)

Total Time: 52:52

Officaial Website

Line-up/Musicians:

- Alessandro Seravalle / solist vocals, guitar
- Camillo Colleluori / drums
- Raffaello Indri / solist guitar
- Pino McKenna / bass
Log EAC:
xact Audio Copy V0.99 prebeta 4 from 23. January 2008

Отчёт EAC об извлечении, выполненном 6. мая 2009, 14:37

Garden Wall / Principium

Дисковод: HL-DT-STDVDRAM GSA-H66N Adapter: 3 ID: 0

Режим чтения : Достоверность
Использование точного потока : Да
Отключение кэша аудио : Да
Использование указателей C2 : Нет

Коррекция смещения при чтении : 667
Способность читать области Lead-in и Lead-out : Нет
Заполнение пропущенных сэмплов тишиной : Да
Удаление блоков с тишиной в начале и конце : Нет
При вычислениях CRC использовались нулевые сэмплы : Да
Интерфейс : Встроенный Win32-интерфейс для Win NT/2000

Выходной формат : Внутренние WAV-операции
Формат сэмплов : 44.100 Гц; 16 бит; стерео

TOC извлечённого CD

Трек | Старт | Длительность | Начальный сектор | Конечный сектор
---------------------------------------------------------------------
1 | 0:00.00 | 5:59.50 | 0 | 26974
2 | 5:59.50 | 8:19.25 | 26975 | 64424
3 | 14:19.00 | 7:29.00 | 64425 | 98099
4 | 21:48.00 | 3:44.00 | 98100 | 114899
5 | 25:32.00 | 13:32.00 | 114900 | 175799
6 | 39:04.00 | 5:09.25 | 175800 | 198999
7 | 44:13.25 | 8:38.52 | 199000 | 237901

Характеристики диапазона извлечения и сообщения об ошибках

Выбранный диапазон

Имя файла E:\Rapida\Lossless\Garden Wall - Principium.wav

Пиковый уровень 100.0 %
Качество диапазона 100.0 %
CRC копии 12387FF9
Копирование... OK

Ошибок не произошло

AccurateRip: сводка

Трек 1 точное извлечение (доверие 1) [CDFBFCF9]
Трек 2 точное извлечение (доверие 1) [F326CD5B]
Трек 3 точное извлечение (доверие 1) [575089DA]
Трек 4 точное извлечение (доверие 1) [0C8739E0]
Трек 5 точное извлечение (доверие 1) [EF63403D]
Трек 6 точное извлечение (доверие 1) [6C84D942]
Трек 7 точное извлечение (доверие 1) [B32BC0B9]

Все треки извлечены точно

Конец отчёта


Last edited by kelia99 on Sun Oct 03, 2010 4:23 am; edited 1 time in total

_________________
Fools all of us... Basketball
avatar
kelia99

Posts : 308
Join date : 2010-09-01
Age : 56

View user profile http://in-rock-lossless.moole.ru/

Back to top Go down

Re: Garden Wall(Italy) - Classic Prog-Metal & Art-Rock

Post by kelia99 on Fri Sep 17, 2010 11:29 pm

Garden Wall - Path Of Dreams (1994)



Year: 1994
Origin: Italy
Genre: Classic Prog-Metal & Art-Rock
Quality: (FLAC,cue,Log,Cover,3% Recovery record)
Size: 454 Mb

Track List:

1. Prelude: The Gates of Hypnos (01:39)
2. Communion (07:02)
3. The Bride of The Wind (06:06)
4. Sex (09:58)
5. Interlude: Between Eros and Thanatos (01:06)
6. Band Lauft (07:18)
7. Kaos (08:09)
8. Oniros (08:44)
9. The Cage (08:45)
10. Maj di Muart (09:26)
11. Mortal Maj (02:07)

Total Time: 70:20

Line-up/Musicians:

- Alessandro Seravalle / singing, guitar, bass and some keyboards
- Camillo Colleluori / Drums
- Marco Ferrero / stick
- Mauro Olivo / keyboard
Log EAC:
Audio Copy V0.99 prebeta 4 from 23. January 2008

Отчёт EAC об извлечении, выполненном 6. мая 2009, 18:39

Garden Wall / Path of Dreams

Дисковод: HL-DT-STDVDRAM GSA-H66N Adapter: 3 ID: 0

Режим чтения : Достоверность
Использование точного потока : Да
Отключение кэша аудио : Да
Использование указателей C2 : Нет

Коррекция смещения при чтении : 667
Способность читать области Lead-in и Lead-out : Нет
Заполнение пропущенных сэмплов тишиной : Да
Удаление блоков с тишиной в начале и конце : Нет
При вычислениях CRC использовались нулевые сэмплы : Да
Интерфейс : Встроенный Win32-интерфейс для Win NT/2000

Выходной формат : Внутренние WAV-операции
Формат сэмплов : 44.100 Гц; 16 бит; стерео

TOC извлечённого CD

Трек | Старт | Длительность | Начальный сектор | Конечный сектор
---------------------------------------------------------------------
1 | 0:00.00 | 1:39.00 | 0 | 7424
2 | 1:39.00 | 7:02.00 | 7425 | 39074
3 | 8:41.00 | 6:06.00 | 39075 | 66524
4 | 14:47.00 | 9:58.00 | 66525 | 111374
5 | 24:45.00 | 1:06.00 | 111375 | 116324
6 | 25:51.00 | 7:18.00 | 116325 | 149174
7 | 33:09.00 | 8:09.00 | 149175 | 185849
8 | 41:18.00 | 8:44.00 | 185850 | 225149
9 | 50:02.00 | 8:45.00 | 225150 | 264524
10 | 58:47.00 | 9:26.00 | 264525 | 306974
11 | 68:13.00 | 2:07.00 | 306975 | 316499

Характеристики диапазона извлечения и сообщения об ошибках

Выбранный диапазон

Имя файла E:\Rapida\Lossless\Garden Wall - 1994\Garden Wall - Path of Dreams.wav

Пиковый уровень 98.0 %
Качество диапазона 100.0 %
CRC копии C2AF3688
Копирование... OK

Ошибок не произошло

AccurateRip: сводка

Трек 1 нет в базе данных
Трек 2 нет в базе данных
Трек 3 нет в базе данных
Трек 4 нет в базе данных
Трек 5 нет в базе данных
Трек 6 нет в базе данных
Трек 7 нет в базе данных
Трек 8 нет в базе данных
Трек 9 нет в базе данных
Трек 10 нет в базе данных
Трек 11 нет в базе данных

Ни одного трека нет в базе AccurateRip

Конец отчёта


Last edited by kelia99 on Sun Oct 03, 2010 4:23 am; edited 1 time in total

_________________
Fools all of us... Basketball
avatar
kelia99

Posts : 308
Join date : 2010-09-01
Age : 56

View user profile http://in-rock-lossless.moole.ru/

Back to top Go down

Re: Garden Wall(Italy) - Classic Prog-Metal & Art-Rock

Post by kelia99 on Fri Sep 17, 2010 11:30 pm

Garden Wall - Chimica (1997)



Year: 1997
Origin: Italy
Genre: Classic Prog-Metal & Art-Rock
Quality: (FLAC,cue,Log,cover,3% Recovery record)
Size: 442 Mb

Track List:

1. Chemotaxis
2. Dave In The Swimming-Pool
3. La Belle Dame
4. Immer Unterwegs
5. Psychic Infrared
6. Immune (he knows my strength...)
7. No More

Total Time: 66:50

Line-up/Musicians:

- Alessandro Seravalle / Lead vocals, acoustic and electric guitars (+ organ on 5)
- Camillo Colleluori / Drums
- Mauro Olivo / Keyboards
- Marco Ferrero / Chapman Stick

special guests:
- Davide Piai / Fretless Bass (7)
- Alex Stornello / Lead Guitar
Log EAC:
Exact Audio Copy V0.99 prebeta 5 from 4. May 2009

EAC extraction logfile from 9. September 2010, 22:03

Garden Wall / Chimica

Used drive : HL-DT-STDVDRAM GSA-H66N Adapter: 3 ID: 0

Read mode : Secure
Utilize accurate stream : Yes
Defeat audio cache : Yes
Make use of C2 pointers : No

Read offset correction : 667
Overread into Lead-In and Lead-Out : No
Fill up missing offset samples with silence : Yes
Delete leading and trailing silent blocks : No
Null samples used in CRC calculations : Yes
Used interface : Native Win32 interface for Win NT & 2000

Used output format : Internal WAV Routines
Sample format : 44.100 Hz; 16 Bit; Stereo


TOC of the extracted CD

Track | Start | Length | Start sector | End sector
---------------------------------------------------------
1 | 0:00.00 | 34:07.68 | 0 | 153592
2 | 34:07.68 | 3:18.00 | 153593 | 168442
3 | 37:25.68 | 9:19.37 | 168443 | 210404
4 | 46:45.30 | 4:47.48 | 210405 | 231977
5 | 51:33.03 | 5:13.48 | 231978 | 255500
6 | 56:46.51 | 3:52.69 | 255501 | 272969
7 | 60:39.45 | 6:20.34 | 272970 | 301503


Range status and errors

Selected range

Filename E:\GW97\Garden Wall - Chimica (1997)\Garden Wall - Chimica.wav

Peak level 100.0 %
Range quality 100.0 %
Copy CRC 7DDA60A5
Copy OK

No errors occurred


AccurateRip summary

Track 1 not present in database
Track 2 not present in database
Track 3 not present in database
Track 4 not present in database
Track 5 not present in database
Track 6 not present in database
Track 7 not present in database

None of the tracks are present in the AccurateRip database

End of status report



Last edited by kelia99 on Sun Oct 03, 2010 4:24 am; edited 1 time in total

_________________
Fools all of us... Basketball
avatar
kelia99

Posts : 308
Join date : 2010-09-01
Age : 56

View user profile http://in-rock-lossless.moole.ru/

Back to top Go down

Re: Garden Wall(Italy) - Classic Prog-Metal & Art-Rock

Post by kelia99 on Fri Sep 17, 2010 11:30 pm

Garden Wall - FORGET THE COLOURS (2002)



Year: 2002
Origin: Italy
Genre: Classic Prog-Metal & Art-Rock
Quality: (FLAC,cue,Log,Cover,3% Recovery record)
Size: 468 Mb

Track List:

1. Lead (9:29)
2. Hatred (7:41)
3. Anniversary (8:58)
4. Bisturi (including Coda:Withered Rose) (9:16)
5. Deinococcus Radiodurans (5:42)
6. Obsession (4:50)
7. Christmas Eve (5:46)
8. Negation of Becoming (8:00)
9. Dreams Slayer (12:12)

Total Time: 70:54

Line-up / Musicians:

- Alessandro Seravalle / vocals, 12 & 6 string, acoustic and electric guitars
- Camillo Colleluori / drums
- Raffaello Indri / 6 string acoustic and electric guitars
- Pino "McKenna" Mechi / 6 string bass guitar

GUESTS:
- Christian "Noochie" Rigano / aural intruder
- Simone D'Eusanio / classical and electric violin
- Alessandro Stornello / electric guitar
Log EAC:
Exact Audio Copy V0.99 prebeta 5 from 4. May 2009

EAC extraction logfile from 9. September 2010, 20:22

Garden Wall / Forget the Colours

Used drive : HL-DT-STDVDRAM GSA-H66N Adapter: 3 ID: 0

Read mode : Secure
Utilize accurate stream : Yes
Defeat audio cache : Yes
Make use of C2 pointers : No

Read offset correction : 667
Overread into Lead-In and Lead-Out : No
Fill up missing offset samples with silence : Yes
Delete leading and trailing silent blocks : No
Null samples used in CRC calculations : Yes
Used interface : Native Win32 interface for Win NT & 2000

Used output format : Internal WAV Routines
Sample format : 44.100 Hz; 16 Bit; Stereo


TOC of the extracted CD

Track | Start | Length | Start sector | End sector
---------------------------------------------------------
1 | 0:00.00 | 9:29.33 | 0 | 42707
2 | 9:29.33 | 7:41.50 | 42708 | 77332
3 | 17:11.08 | 8:58.54 | 77333 | 117736
4 | 26:09.62 | 9:16.36 | 117737 | 159472
5 | 35:26.23 | 5:42.08 | 159473 | 185130
6 | 41:08.31 | 4:50.32 | 185131 | 206912
7 | 45:58.63 | 5:46.25 | 206913 | 232887
8 | 51:45.13 | 8:00.59 | 232888 | 268946
9 | 59:45.72 | 12:12.16 | 268947 | 323862


Range status and errors

Selected range

Filename E:\GW02\Garden Wall-2002\Garden Wall - Forget the Colours.wav

Peak level 100.0 %
Range quality 99.9 %
Copy CRC 5A7D562F
Copy OK

No errors occurred


AccurateRip summary

Track 1 accurately ripped (confidence 2) [E0615F81]
Track 2 accurately ripped (confidence 2) [442325DB]
Track 3 accurately ripped (confidence 2) [ADF4BF14]
Track 4 accurately ripped (confidence 2) [5CE44AE4]
Track 5 accurately ripped (confidence 2) [E6E580A1]
Track 6 accurately ripped (confidence 2) [4FBFEB18]
Track 7 accurately ripped (confidence 2) [ECEAEF7B]
Track 8 accurately ripped (confidence 2) [B97CF601]
Track 9 accurately ripped (confidence 2) [941E4BF8]

All tracks accurately ripped

End of status report


Last edited by kelia99 on Sun Oct 03, 2010 4:24 am; edited 1 time in total

_________________
Fools all of us... Basketball
avatar
kelia99

Posts : 308
Join date : 2010-09-01
Age : 56

View user profile http://in-rock-lossless.moole.ru/

Back to top Go down

Re: Garden Wall(Italy) - Classic Prog-Metal & Art-Rock

Post by kelia99 on Fri Sep 17, 2010 11:31 pm

Garden Wall - Towards The Silence (2004)



Year: 2004
Origin: Italy
Genre: Classic Prog-Metal & Art-Rock
Quality: (FLAC,cue,Log,Cover,3% Recovery record)
Size: 442 Mb

Track List:

1. Please Wait... Forgetting... (0:44)
2. Caesura (8:21)
3. Luna (9:44)
4. Oxymoron (5:27)
5. Bottom (10:24)
6. 4 (8:35)
7. Inadeguato (5:50)
8. Tome' (5:23)
9. Cursed Nature (For Caligola) (6:45)
10. Der Stille Entgegen (3:12)

Line-up / Musicians :

- Alessandro Seravalle / guitars, piano, e-bow, music & poems
- Camillo Colleleuori / drums, all arrangements
- Raffaello Indri / rhythm & lead guitars, acoustic guitars, guitar-synth
- Pino Mechi / the Chapman stick

Special guest:
- Alessandro Stornelle / semi-acoustic lead guitar on "Bottom"
Log EAC:
Exact Audio Copy V0.99 prebeta 5 from 4. May 2009

EAC extraction logfile from 9. September 2010, 21:23

Garden Wall / Towards the Silence

Used drive : HL-DT-STDVDRAM GSA-H66N Adapter: 3 ID: 0

Read mode : Secure
Utilize accurate stream : Yes
Defeat audio cache : Yes
Make use of C2 pointers : No

Read offset correction : 667
Overread into Lead-In and Lead-Out : No
Fill up missing offset samples with silence : Yes
Delete leading and trailing silent blocks : No
Null samples used in CRC calculations : Yes
Used interface : Native Win32 interface for Win NT & 2000

Used output format : Internal WAV Routines
Sample format : 44.100 Hz; 16 Bit; Stereo


TOC of the extracted CD

Track | Start | Length | Start sector | End sector
---------------------------------------------------------
1 | 0:00.00 | 0:46.53 | 0 | 3502
2 | 0:46.53 | 8:23.03 | 3503 | 41230
3 | 9:09.56 | 9:46.24 | 41231 | 85204
4 | 18:56.05 | 5:29.50 | 85205 | 109929
5 | 24:25.55 | 10:36.26 | 109930 | 157655
6 | 35:02.06 | 8:37.51 | 157656 | 196481
7 | 43:39.57 | 5:52.36 | 196482 | 222917
8 | 49:32.18 | 5:25.69 | 222918 | 247361
9 | 54:58.12 | 6:47.65 | 247362 | 277951
10 | 61:46.02 | 3:12.47 | 277952 | 292398


Range status and errors

Selected range

Filename E:\GW04\Garden Wall - Towards The Silence (2004)\Garden Wall - Towards the Silence.wav

Peak level 99.4 %
Range quality 100.0 %
Copy CRC ED8E88A4
Copy OK

No errors occurred


AccurateRip summary

Track 1 not present in database
Track 2 not present in database
Track 3 not present in database
Track 4 not present in database
Track 5 not present in database
Track 6 not present in database
Track 7 not present in database
Track 8 not present in database
Track 9 not present in database
Track 10 not present in database

None of the tracks are present in the AccurateRip database

End of status report


Last edited by kelia99 on Sun Oct 03, 2010 4:25 am; edited 1 time in total

_________________
Fools all of us... Basketball
avatar
kelia99

Posts : 308
Join date : 2010-09-01
Age : 56

View user profile http://in-rock-lossless.moole.ru/

Back to top Go down

Re: Garden Wall(Italy) - Classic Prog-Metal & Art-Rock

Post by kelia99 on Fri Sep 17, 2010 11:31 pm

Garden Wall - The Seduction Of Madness (1995)



Year: 1995
Origin: Italy
Genre: Classic Prog-Metal & Art-Rock
Quality: (FLAC,cue,Log,Not cover,3% Recovery record)
Size: 362 Mb

Track List:

1. Horizon Of Events (6:05)
2. Taenia (4:45)
3. W8less (6:49) / Noia (5:53)
4. Strange Appetites (Pornopazzia) (4:54)
5. Le Château Fou (6:08)
6. All The Best Years (My Top Ten) (3:21)
7. The Doll (8:27)
8. Blurp (1:46)
9. Sedation (Of Madness) (7:51)

Total Time: 55:54

Line-up/Musicians:

- Mauro Olivo / keyboards, piano, flute
- Fabrizio Zidarich / 6-string bass, 5-string fretless bass
- Alessandro Seravalle / vocals, guitars, keyboards
- Camillo Colleluori / drums
Log EAC:
Exact Audio Copy V0.99 prebeta 5 from 4. May 2009

EAC extraction logfile from 9. September 2010, 19:49

Garden Wall / The Seduction Of Madness

Used drive : HL-DT-STDVDRAM GSA-H66N Adapter: 3 ID: 0

Read mode : Secure
Utilize accurate stream : Yes
Defeat audio cache : Yes
Make use of C2 pointers : No

Read offset correction : 667
Overread into Lead-In and Lead-Out : No
Fill up missing offset samples with silence : Yes
Delete leading and trailing silent blocks : No
Null samples used in CRC calculations : Yes
Used interface : Native Win32 interface for Win NT & 2000

Used output format : Internal WAV Routines
Sample format : 44.100 Hz; 16 Bit; Stereo


TOC of the extracted CD

Track | Start | Length | Start sector | End sector
---------------------------------------------------------
1 | 0:00.00 | 6:04.39 | 0 | 27338
2 | 6:04.39 | 4:44.34 | 27339 | 48672
3 | 10:48.73 | 6:47.64 | 48673 | 79261
4 | 17:36.62 | 5:52.25 | 79262 | 105686
5 | 23:29.12 | 4:53.73 | 105687 | 127734
6 | 28:23.10 | 6:06.70 | 127735 | 155254
7 | 34:30.05 | 3:20.05 | 155255 | 170259
8 | 37:50.10 | 8:27.54 | 170260 | 208338
9 | 46:17.64 | 1:45.04 | 208339 | 216217
10 | 48:02.68 | 7:50.48 | 216218 | 251515


Range status and errors

Selected range

Filename E:\GW95\Garden Wall - The Seduction Of Madness.wav

Peak level 100.0 %
Range quality 99.9 %
Copy CRC AC976333
Copy OK

No errors occurred


AccurateRip summary

Track 1 not present in database
Track 2 not present in database
Track 3 not present in database
Track 4 not present in database
Track 5 not present in database
Track 6 not present in database
Track 7 not present in database
Track 8 not present in database
Track 9 not present in database
Track 10 not present in database

None of the tracks are present in the AccurateRip database

End of status report


Last edited by kelia99 on Sun Oct 03, 2010 4:25 am; edited 1 time in total

_________________
Fools all of us... Basketball
avatar
kelia99

Posts : 308
Join date : 2010-09-01
Age : 56

View user profile http://in-rock-lossless.moole.ru/

Back to top Go down

Re: Garden Wall(Italy) - Classic Prog-Metal & Art-Rock

Post by kelia99 on Fri Sep 17, 2010 11:32 pm

atlan wrote:Thank you !
Could you please reupload Garden Wall - Towards The Silence ?

_________________
Fools all of us... Basketball
avatar
kelia99

Posts : 308
Join date : 2010-09-01
Age : 56

View user profile http://in-rock-lossless.moole.ru/

Back to top Go down

Re: Garden Wall(Italy) - Classic Prog-Metal & Art-Rock

Post by kelia99 on Fri Sep 17, 2010 11:33 pm

atlan wrote:Thank you !
Could you please reupload Garden Wall - Towards The Silence ?
Перезалита вся дискография. 11.09.2010.

_________________
Fools all of us... Basketball
avatar
kelia99

Posts : 308
Join date : 2010-09-01
Age : 56

View user profile http://in-rock-lossless.moole.ru/

Back to top Go down

Re: Garden Wall(Italy) - Classic Prog-Metal & Art-Rock

Post by kelia99 on Fri Sep 17, 2010 11:33 pm

sole-survivor wrote:Блин... вот красиво всё. Но ничо с собой не могу поделать, могу слушать тока первые два. А потом - ну никак... Даже голая баба (извиняюсь за избитое выражение) на обложке не спасает. Laughing

_________________
Fools all of us... Basketball
avatar
kelia99

Posts : 308
Join date : 2010-09-01
Age : 56

View user profile http://in-rock-lossless.moole.ru/

Back to top Go down

Re: Garden Wall(Italy) - Classic Prog-Metal & Art-Rock

Post by kelia99 on Fri Sep 17, 2010 11:34 pm

kelia99 wrote:
sole-survivor wrote:Блин... вот красиво всё. Но ничо с собой не могу поделать, могу слушать тока первые два. А потом - ну никак... Даже голая баба (извиняюсь за избитое выражение) на обложке не спасает. Laughing
А мне не идут два последних... Very Happy

_________________
Fools all of us... Basketball
avatar
kelia99

Posts : 308
Join date : 2010-09-01
Age : 56

View user profile http://in-rock-lossless.moole.ru/

Back to top Go down

Re: Garden Wall(Italy) - Classic Prog-Metal & Art-Rock

Post by kelia99 on Fri Sep 17, 2010 11:34 pm

sbrown58 wrote:Thanks for a bunch of these!

_________________
Fools all of us... Basketball
avatar
kelia99

Posts : 308
Join date : 2010-09-01
Age : 56

View user profile http://in-rock-lossless.moole.ru/

Back to top Go down

Re: Garden Wall(Italy) - Classic Prog-Metal & Art-Rock

Post by kelia99 on Fri Sep 17, 2010 11:35 pm

atlan wrote:
kelia99 wrote:
atlan wrote:Thank you !
Could you please reupload Garden Wall - Towards The Silence ?
Перезалита вся дискография. 11.09.2010.
Many thanks !
Большое спасибо !

_________________
Fools all of us... Basketball
avatar
kelia99

Posts : 308
Join date : 2010-09-01
Age : 56

View user profile http://in-rock-lossless.moole.ru/

Back to top Go down

Re: Garden Wall(Italy) - Classic Prog-Metal & Art-Rock

Post by Guest on Fri Oct 15, 2010 5:50 pm

А здесь нет самого последнего альбома - Aliena(c)tion, 2008 http://www.progarchives.com/album.asp?id=24557

Guest
Guest


Back to top Go down

Re: Garden Wall(Italy) - Classic Prog-Metal & Art-Rock

Post by kelia99 on Fri Oct 15, 2010 9:29 pm

rigpa wrote:А здесь нет самого последнего альбома - Aliena(c)tion, 2008 http://www.progarchives.com/album.asp?id=24557
да есть он у меня, но толлько в Мр3. Вообще-то для ознакомления можно и залить.

_________________
Fools all of us... Basketball
avatar
kelia99

Posts : 308
Join date : 2010-09-01
Age : 56

View user profile http://in-rock-lossless.moole.ru/

Back to top Go down

Re: Garden Wall(Italy) - Classic Prog-Metal & Art-Rock

Post by Guest on Fri Oct 15, 2010 9:44 pm

Жаль, что в mp3 только... Я поискал в сети, что-то в лосслесс его не видно.(((

Guest
Guest


Back to top Go down

Re: Garden Wall(Italy) - Classic Prog-Metal & Art-Rock

Post by kelia99 on Fri Oct 15, 2010 9:50 pm

Garden Wall - Aliena(c)tion (2008)Mp3



Year: 2008
Origin: Italy
Genre: Classic Prog-Metal & Art-Rock
Quality: (Mp3 - 320kb/s, Front, 3% Recovery record)
Size: 117 Mb
Uploated to: Multiupload
Source: my Mp3 collection

Track List:

1. Patogenesi (7:13)
2. Ohne Zuckerzusatz (7:28)
3. Song for an Angel (4:31)
4. Ekpryrosis (6:25)
5. W8less (7:26)
6. Oniros (8:58)
7. The Doll (7:58)

Total Time:48:39

Line-up / Musicians :

- Alessandro Seravalle / vocals,guitars
- Camillo Calleluori / drums
- Marco Ferrero / stick
- Pino Mecci / bass
- Raffaello Indri / guitars


_________________
Fools all of us... Basketball
avatar
kelia99

Posts : 308
Join date : 2010-09-01
Age : 56

View user profile http://in-rock-lossless.moole.ru/

Back to top Go down

Re: Garden Wall(Italy) - Classic Prog-Metal & Art-Rock

Post by Sponsored content


Sponsored content


Back to top Go down

View previous topic View next topic Back to top

- Similar topics

 
Permissions in this forum:
You cannot reply to topics in this forum