Blue Drift(UK) - Mariner(2005)

View previous topic View next topic Go down

Blue Drift(UK) - Mariner(2005)

Post by kelia99 on Thu Sep 16, 2010 3:53 pm

Blue Drift(UK) - Mariner(2005)



BLUE DRIFT

Страна: UK
Альбом: 2005 - "Mariner" ******!

Альбом: Альбом "Mariner" разнообразнее своего предшественника, да и не очень то на него похож, налицо значительное отклонение от саунда, характерного для начала деятельности Blue Drift. Стилистический паллет группы становится шире, появляется больше жанров, к которым они обращаются для получения остроты форм. Первые две композиции, Flight of Doom и Nuclear Train, самое явное подтверждение сказанному. Здесь определенно тяжелая и насыщенная музыка, представляет собой невероятно изобретательный Прог Метал практически в чистом виде, где клавишные используются редко, разве что для создания фона. Flight of Doom - подходящее название для этой песни, так как несмотря на все ее многообразие, основу определенно составляет Дум Метал. Трэк 2 - возможно самый замысловатый, содержит в себе постоянно изменяющиеся аранжировки со множеством уникальных и хорошо запоминающихся гитарных соло. Дэйв Лоддер оказывает значительное влияние на композиции, а также общее звучание и стиль большинства из них, этому способствует его подход к игре на гитаре и клавишных, который, в свою очередь, зависит от выбора тональности и т.д. Единственным заметным исключением из этого правила является Deep Space Джона Лоддера с пульсирующими соло на бас гитаре, задающими тон на протяжении всего трэка, а гитара и синтезаторы обвивают их плавными рисунками, что на самом деле напоминает углубленную исследовательскую деятельность в области Спэйс Рока. Наполненная подвохами и непредсказуемостью, Digging For Chance сильно выделяется среди первых пяти композиций. Она так же была написана Джоном, и здесь, его страсть к космологии можно легко проследить уже в первой половине трэка, но даже здесь не обошлось без подавляющих рифов Дэйва. Где-то в середине, трио неожиданно вторгается в территории Джаз Фьюжна, Дэйв чаще переключается на фортепиано, а Арч выдает сложные и ломаные партии ударных, что эффективно сочетается с импровизациями братьев. И чем дальше развивается композиция, тем больше новых неожиданных событий ожидают слушателя. В заключительной части группа покоряет в ысоты Прог Метала, но вскоре, возвращается к своей уникальной формуле квази Джаз Фьюжна, которая будет лежать и в основе следующего трэка, Half Light. Заглавный трэк длится немного более 20 минут, и его в полном смысле слова можно назвать сюитой, содержащей множество тематических секций с помпезными, тихими и смешанными аранжировками, тщательно проработанными и отлично исполненными. В музыкальном плане, это нечто вроде собрания всех стилей, к которым группа обращалась до этого: гитарный Арт Рок, Прог Метал, Спэйс Рок и Джаз Фьюжн, хотя так же присутствуют элементы симфонического Прогрессива, впервые сыгранного здесь в чистом виде. Несколько намеков на Rush заметны в Mariner, но, в общем, это достаточно оригинальная, не лишенная смысла вещь. Вся прелесть альбома "Mariner" в том, что при заметном разнообразии стилей из трэка в трэк, качество музыки на протяжении всех шести остается неизменно высоким. Это многогранный материал, затрагивающий несколько различных жанров. Так что любителям Арт Рока в чистом его проявлении стоит учесть это перед покупкой альбома. Но в любом случае очень рекомендую.
Progrock museum

Year: 2005
Origin: UK
Genre: Progressive rock,Fusion
Quality: (FLAC,cue,Log, cover,3% Recovery record)
Size: 363 mb

Track List:

1. Flight of Doom (4:15)
2. Nuclear train (6:58)
3. Deep Space (8:15)
4. Digging for Chance (6:65)
5. Half Light (3:04)
6. The Mariner (21:14)

Total Time: 50:42

Line-up Musicians:

- John Lodder / Fretted & Fretless basses, additional keyboards (3)
- Arch / drums & percussion
- Dave Lodder / electric & acoustic guitars, keyboards

Releases information
CD Blue Drift CARP787 UK (2005)
Log EAC:
Exact Audio Copy V0.99 prebeta 4 from 23. January 2008

Отчёт EAC об извлечении, выполненном 27. января 2010, 20:41

Blue Drift / Mariner

Дисковод: HL-DT-STDVDRAM GSA-H66N Adapter: 3 ID: 0

Режим чтения : Достоверность
Использование точного потока : Да
Отключение кэша аудио : Да
Использование указателей C2 : Нет

Коррекция смещения при чтении : 667
Способность читать области Lead-in и Lead-out : Нет
Заполнение пропущенных сэмплов тишиной : Да
Удаление блоков с тишиной в начале и конце : Нет
При вычислениях CRC использовались нулевые сэмплы : Да
Интерфейс : Встроенный Win32-интерфейс для Win NT/2000

Выходной формат : Внутренние WAV-операции
Формат сэмплов : 44.100 Гц; 16 бит; стерео


TOC извлечённого CD

Трек | Старт | Длительность | Начальный сектор | Конечный сектор
---------------------------------------------------------------------
1 | 0:00.00 | 4:15.41 | 0 | 19165
2 | 4:15.41 | 6:58.68 | 19166 | 50583
3 | 11:14.34 | 8:15.21 | 50584 | 87729
4 | 19:29.55 | 6:56.67 | 87730 | 118996
5 | 26:26.47 | 3:04.38 | 118997 | 132834
6 | 29:31.10 | 21:12.38 | 132835 | 228272


Характеристики диапазона извлечения и сообщения об ошибках

Выбранный диапазон

Имя файла J:\Blue Drift - 2005\Blue Drift - Mariner.wav

Пиковый уровень 100.0 %
Качество диапазона 100.0 %
CRC копии D3E69329
Копирование... OK

Ошибок не произошло

Конец отчёта

_________________
Fools all of us... Basketball
avatar
kelia99

Posts : 308
Join date : 2010-09-01
Age : 55

View user profile http://in-rock-lossless.moole.ru/

Back to top Go down

View previous topic View next topic Back to top

- Similar topics

 
Permissions in this forum:
You cannot reply to topics in this forum