Xsavior(Sweden) - Caleidoscope (2005)

View previous topic View next topic Go down

Xsavior(Sweden) - Caleidoscope (2005)

Post by kelia99 on Wed Dec 08, 2010 6:09 pm





XSAVIOR is a Swedish progressive metal band who began when vocalist Göran Edman (YNGWIE J. MALMSTEEN,TIME REQUIEM),drummer Daniel Flores (MIND'S EYE,HUBI MESEIL & TEARS OF ANGER among many others) and guitarist Benny Jansson (TEARS OF ANGER,RIDE THE SKY) got together for the recording of Jansson's third solo album "Save the World" in 2003.The three veteran session musicians felt they had much in common musically and decided to join forces,with the aim of creating original music in the style that they loved...progressive metal.

Needing more members,they recruited keyboardist Matt Norberg,Daniel Flores' best friend since childhood.They soon found their bassist in Mathias Garnås (RIDE THE SKY) and XSAVIOR was born.

The new band immediately went into the studio and recorded their debut album "Caleidoscope",which was released in 2005.

XSAVIOR merges influences from metal,progressive rock and even pop and plays a fresh,innovative brand of progressive metal.If you merged DREAM THEATER,SYMPHONY X,QUEEN,STYX and THE FLOWER KINGS....XSAVIOR might be the result.Highly recommended!

Origin: Sweden
Genre: Progressive rock, Progressive metal
Quality: (FLAC,cue,Log, cover,3% Recovery record)
Size: 506 mb
Uploated to: Multiupload
Source: My CD-R collection

Track List:

1. April Skies (5:35)
2. Lex The Fly (5:58)
3. Mr. Chairman (5:31)
4. Take Me Home (4:26)
5. In Memorial Of... (Taj Mahal, Part I) (5:37)
6. By The Golden River (Taj Mahal, Part II) (6:00)
7. Waves Of The Sea (Taj Mahal, Part III) (6:15)
8. Green Mile (4:14)
9. Cosmic Virus (4:23)
10. Material World (5:16)
11. A Snake In Paradise (6:03)
12. Xsavior (5:27)

Total Time: 64:50





Line-up / Musicians :

- Göran Edman / vocals
- Benny Jansson / guitar
- Matt Norberg / keyboards
- Mathias Garnås / bass
- Daniel Flores / drums

Log EAC:
Exact Audio Copy V0.99 prebeta 5 from 4. May 2009

Отчёт EAC об извлечении, выполненном 5. декабря 2010, 10:27

Xsavior / Caleidoscope

Дисковод: HL-DT-STDVDRAM GH22NS50 Adapter: 3 ID: 0

Режим чтения : Достоверность
Использование точного потока : Да
Отключение кэша аудио : Да
Использование указателей C2 : Нет

Коррекция смещения при чтении : 667
Способность читать области Lead-in и Lead-out : Нет
Заполнение пропущенных сэмплов тишиной : Да
Удаление блоков с тишиной в начале и конце : Нет
При вычислениях CRC использовались нулевые сэмплы : Да
Интерфейс : Встроенный Win32-интерфейс для Win NT/2000

Выходной формат : Внутренние WAV-операции
Формат сэмплов : 44.100 Гц; 16 бит; стерео


TOC извлечённого CD

Трек | Старт | Длительность | Начальный сектор | Конечный сектор
---------------------------------------------------------------------
1 | 0:00.00 | 5:35.07 | 0 | 25131
2 | 5:35.07 | 5:58.35 | 25132 | 52016
3 | 11:33.42 | 5:31.40 | 52017 | 76881
4 | 17:05.07 | 4:26.28 | 76882 | 96859
5 | 21:31.35 | 5:37.62 | 96860 | 122196
6 | 27:09.22 | 6:00.06 | 122197 | 149202
7 | 33:09.28 | 6:15.52 | 149203 | 177379
8 | 39:25.05 | 4:14.21 | 177380 | 196450
9 | 43:39.26 | 4:23.36 | 196451 | 216211
10 | 48:02.62 | 5:16.10 | 216212 | 239921
11 | 53:18.72 | 6:03.34 | 239922 | 267180
12 | 59:22.31 | 5:27.60 | 267181 | 291765


Характеристики диапазона извлечения и сообщения об ошибках

Выбранный диапазон

Имя файла E:\Xsavior - Caleidoscope (2005)\Xsavior - Caleidoscope.wav

Пиковый уровень 99.4 %
Качество диапазона 99.9 %
CRC копии AD0DF640
Копирование... OK

Ошибок не произошло


AccurateRip: сводка

Трек 1 точное извлечение (доверие 2) [A16BEEE3]
Трек 2 точное извлечение (доверие 2) [1477E2EE]
Трек 3 точное извлечение (доверие 2) [DC08A53E]
Трек 4 точное извлечение (доверие 2) [05F77C72]
Трек 5 точное извлечение (доверие 2) [7EE18307]
Трек 6 точное извлечение (доверие 2) [6F96CC2C]
Трек 7 точное извлечение (доверие 2) [9769644C]
Трек 8 точное извлечение (доверие 2) [1A152B52]
Трек 9 точное извлечение (доверие 2) [499ADFC8]
Трек 10 точное извлечение (доверие 2) [4D732FB7]
Трек 11 точное извлечение (доверие 2) [A97FBEAB]
Трек 12 точное извлечение (доверие 2) [6A522C87]

Все треки извлечены точно

Конец отчёта


_________________
Fools all of us... Basketball
avatar
kelia99

Posts : 308
Join date : 2010-09-01
Age : 55

View user profile http://in-rock-lossless.moole.ru/

Back to top Go down

Re: Xsavior(Sweden) - Caleidoscope (2005)

Post by Johnik on Thu Dec 30, 2010 5:24 pm

Саня, а можешь магнетом отдать?
Инструкция тут http://melo.superforum.fr/t2512-topic
avatar
Johnik

Posts : 246
Join date : 2010-09-01
Age : 58
Location : украина

View user profile

Back to top Go down

Re: Xsavior(Sweden) - Caleidoscope (2005)

Post by vknish on Thu Dec 30, 2010 11:51 pm

Johnik wrote:Саня, а можешь магнетом отдать?
Инструкция тут http://melo.superforum.fr/t2512-topic
Поддерживаю просьбу предыдущего оратора. Very Happy

_________________
Друг - человек, который знает о вас все, и, тем не менее, любит вас.
Джон Аулер
avatar
vknish

Posts : 329
Join date : 2010-09-05
Age : 58

View user profile

Back to top Go down

Re: Xsavior(Sweden) - Caleidoscope (2005)

Post by kelia99 on Thu Dec 30, 2010 11:58 pm

vknish wrote:
Johnik wrote:Саня, а можешь магнетом отдать?
Инструкция тут http://melo.superforum.fr/t2512-topic
Поддерживаю просьбу предыдущего оратора. Very Happy
обьясните мне , не такому продвинутому, Very Happy . Мне что нужно создать раздачу в другой директории(папке)? Ведь раздача идёт... Что-то у меня не получилось. А делал так... по Жекиной инструкции.

_________________
Fools all of us... Basketball
avatar
kelia99

Posts : 308
Join date : 2010-09-01
Age : 55

View user profile http://in-rock-lossless.moole.ru/

Back to top Go down

Re: Xsavior(Sweden) - Caleidoscope (2005)

Post by vknish on Fri Dec 31, 2010 12:05 am

kelia99 wrote:
vknish wrote:
Johnik wrote:Саня, а можешь магнетом отдать?
Инструкция тут http://melo.superforum.fr/t2512-topic
Поддерживаю просьбу предыдущего оратора. Very Happy
обьясните мне , не такому продвинутому, Very Happy . Мне что нужно создать раздачу в другой директории(папке)? Ведь раздача идёт... Что-то у меня не получилось. А делал так... по Жекиной инструкции.
Не прибедняйся, а. Very Happy
Уточни где идет раздача. Я что-то не нахожу.

_________________
Друг - человек, который знает о вас все, и, тем не менее, любит вас.
Джон Аулер
avatar
vknish

Posts : 329
Join date : 2010-09-05
Age : 58

View user profile

Back to top Go down

Re: Xsavior(Sweden) - Caleidoscope (2005)

Post by kelia99 on Fri Dec 31, 2010 12:12 am


_________________
Fools all of us... Basketball
avatar
kelia99

Posts : 308
Join date : 2010-09-01
Age : 55

View user profile http://in-rock-lossless.moole.ru/

Back to top Go down

Re: Xsavior(Sweden) - Caleidoscope (2005)

Post by vknish on Fri Dec 31, 2010 12:19 am

kelia99 wrote:осiсьочки и здеся Very Happy
Как-то прошел не замеченным Very Happy
Исправлюсь.
Спасибо.

_________________
Друг - человек, который знает о вас все, и, тем не менее, любит вас.
Джон Аулер
avatar
vknish

Posts : 329
Join date : 2010-09-05
Age : 58

View user profile

Back to top Go down

Re: Xsavior(Sweden) - Caleidoscope (2005)

Post by Sponsored content


Sponsored content


Back to top Go down

View previous topic View next topic Back to top

- Similar topics

 
Permissions in this forum:
You cannot reply to topics in this forum