Albert Mangelsdorff I(jazz, bop)

View previous topic View next topic Go down

Albert Mangelsdorff I(jazz, bop)

Post by Musicgate on Sat Jan 08, 2011 6:57 pm

Albert Mangelsdorff with The Jazz Sextet - European Tour '57 (Lone Hil Jazz 2006)







--------------------------------------------------------
Data
--------------------------------------------------------
Genre: Jazz, Bop, West Coast
Country: US, Germany
Recording Date & Place: Mar 1957 - Apr 12, 1957
Original Release Date: 2006
Label: LHJ10248, ®&© 2006 Lone Hill Jazz, Licensed by Long Horn Inc. , Made in EU
Type: Compilation, Instrumental, Live

Source: Render's collection
Ripped - Uploaded by: Musicgate
Total time: 70:12

--------------------------------------------------------
Tracklist, Personel
--------------------------------------------------------
01 THESE FOOLISH THINGS - 4:09 (Harry Link-Holt Marvell-Jack Strachey)
O2 WHAT A DIFFERENCE A DAY MAKES - 4:06 (Stanley Adams-Maria Mendez Grever)
03 EMBRACEABLE YOU - 3:35 (George Gershwin-Ira Gershwin)
04 OUR LOVE IS HERE TO STAY - 3:23(George Gershwin-Ira Gershwin)
05 LULLABY OF BIRDLAND - 2:18 (George Shearing-George David Weiss)

Albert: Mangelsdorff (tb),
Bud Shank (аs: 2, 4; fl: 1, 3, 5),
Bob Cooper (ts: 2, 4; oboe: 1, 3, 5],
Atilla Zoller (g),
Gary Peacock (b},
Karl Banner (d)
Hamburg, Germany, April 12, 1957

06 Intro by Werner Gotze - 0:31
07 STUDIO 15 (АКА JUBILATION) - 3:40(Bob Cooper)
08 Intro by Albert Mangelsdorff - 0:53
09 I'LL CLOSE MY EYES - 4:18(Buddy Kaye-Billy Reid)
10 Intro by Bob Cooper - 0:57
11 ANGEL EYES - 3:17(Earl Brent-Matt Dennis)
12 TEA FOR TWO - 4:15(Irving Caesаг-Vincent Youmans)
13 Intro by Bud Shank - 0:51
14 I CAN'T GET STARTED - 2:57 (Vernon Duke-Ira Gershwin)
15 TANGERINE - 5:49 (Johny Mercer-Victor Schertzinger)
16 Intro by Bud Shank - 0:36
17 THE NEARNESS OF YOU - 4:04(Hoagy Carmichael-Ned Washington)
18 A NIGHT IN TUNISIA - 7:16(Dizzy Gillespie-Frank Paparelli)
19 I'LL REMEMBER APRIL - 13:16(Gene DePaul-Buddy Johnson-Don Raye)

Albert Mangelsdorff (tb: 7, 9, 19)
Bud Shank (as: 7, 14, 15, 19; fl: 17, 18)
Bob Cooper (ts: 7, 11, 12, 18, 19; oboe: 17)
Atilla Zoller (g)
Gary Peacock (b)
Karl Banner (d),
Werner Gotze [MC], Freddie Brocksieper (MC: 19)
Broadcast from Freddie Brocksieper's "Studio 15", Munich, Germany, March, 1957

--------------------------------------------------------
wrote on booklet
--------------------------------------------------------
Бад Шанк и Боп Купер в 1957 активно выступали в Европе и 2 месяца провели в Германии, где часто работали с составом Альберта Мангельсдорфа. Этот диск начинается с концерта, записанного секстетом в Гамбурге в апреле 1957, в репертуаре 5 классических стандартов; вторая часть издания представляет раритет - радио-передачу секстета из легендарного музыкального клуба "Studio 15" в Мюнхене, хозяином которого был известный немецкий ударник и бенд-лидер Freddie Brocksieper. Треки 8, 10 и 13 представляют короткие интервью с тремя членами секстета, тесты интервью представлены также в буклете диска

Our release begins with a concert recorded by the sextet in Hamburg on April 12, 1957. The repertoire includes five classic standards, featuring all three horn players on each tune. Shank and Cooper play alto and tenor saxophone, respectively, on the tunes What a Difference a Day Makes, and Our Love Is Here to Stay, and flute and oboe, respectively, on the tracks These Foolish Things, Embraceable You and Lullaby of Birdland, the horn solos are excellent, and Mangelsdorff proves a more than capable frontline partner for his American collaborators, displaying his virtuosic technique, energetic style and gift for melodic invention on each solo. The same could be said for Zoller, who will certainly surprise jazz fans unfamiliar with his work. The Hungarian guitarist mowed to New York in 1966, where he performed and recorded with such notable musicians as Herbie Mann, Steve Lacy, Cal Tjader, Benny Goodman, Shirley Scott, Lee Konitz, Jim Hall, and Sir Roland Hanna, among others. He also made numerous recordings as a leader up until his death in Vermont on January 25, 1998. Much like Mangelsdorff, Zoller was a truly versatile musician, who became one of the most accomplished guitarists in the history of free jazz.
The second part of this edition consists of a radio broadcast of the sextet from the well-known German drummer and bandleader Freddie Brocksieper's legendary Munich club "Studio 15". The broadcast also featured the Munich radio figure Werner Gotze as the MC for the program. Although the broadcast date is listed in discographies as May 29, 1957, the following transcripts between Werner Gotze and Bob Cooper seem to contradict this information, and it is much more likely that it took place in late March.
Tracks 8, 10 and 13 of this CD feature brief interview snippets between Werner Gotze and Mangelsdorff, Cooper and Shank, respectively.

--------------------------------------------------------
Review by Scott Yanow
--------------------------------------------------------

Altoist Bud Shank and tenor saxophonist Bob Cooper toured Europe extensively in 1957 and spent two months in Germany. While there, they often worked with trombonist Albert Mangelsdorff's unit, a group that also featured guitarist Attila Zoller. Mangelsdorff appeared on a few broadcasts with Shank and Cooper, with the two previously unissued broadcasts on this valuable CD being under the trombonist's name. Mangelsdorff is best remembered for his work in free jazz and the avant-garde but in 1957 he was a very fluent bop trombonist, one who held his own with the two saxophonists. Zoller also fares particularly well during these straight-ahead performances while Shank (doubling occasionally on flute) and Cooper (who switches to oboe for a couple of specialties) are heard in their early prime. Fans of West Coast jazz will definitely love these rare and well-preserved broadcasts.



Spoiler:


Included: FLAC (tracks image), TAU, CUE, LOG
Rip validating: EAC ripped, correct, test and copy mode, accureatelly ripped
Covers: Full Artworks provided

Exact Audio Copy V0.99 prebeta 4 from 23. January 2008

EAC extraction logfile from 1. December 2010, 18:20

Albert Mangelsdorff with The Jazz Sextet / European Tour '57

Used drive : HL-DT-STDVD-RAM GH22NP20 Adapter: 0 ID: 0

Read mode : Secure
Utilize accurate stream : Yes
Defeat audio cache : Yes
Make use of C2 pointers : No

Read offset correction : 102
Overread into Lead-In and Lead-Out : No
Fill up missing offset samples with silence : Yes
Delete leading and trailing silent blocks : No
Null samples used in CRC calculations : Yes
Used interface : Installed external ASPI interface
Gap handling : Appended to previous track

Used output format : User Defined Encoder
Selected bitrate : 320 kBit/s
Quality : High
Add ID3 tag : No
Command line compressor : C:\Program Files\Exact Audio Copy\Flac\flac.exe
Additional command line options : -V -8 -T "artist=%a" -T "title=%t" -T "album=%g" -T "date=%y" -T "tracknumber=%n" -T "genre=%m" %s


TOC of the extracted CD

Track | Start | Length | Start sector | End sector
---------------------------------------------------------
1 | 0:00.00 | 4:09.15 | 0 | 18689
2 | 4:09.15 | 4:06.18 | 18690 | 37157
3 | 8:15.33 | 3:25.19 | 37158 | 52551
4 | 11:40.52 | 3:23.62 | 52552 | 67838
5 | 15:04.39 | 2:18.15 | 67839 | 78203
6 | 17:22.54 | 0:31.58 | 78204 | 80586
7 | 17:54.37 | 3:40.21 | 80587 | 97107
8 | 21:34.58 | 0:53.58 | 97108 | 101140
9 | 22:28.41 | 4:18.51 | 101141 | 120541
10 | 26:47.17 | 0:57.74 | 120542 | 124890
11 | 27:45.16 | 3:17.66 | 124891 | 139731
12 | 31:03.07 | 4:15.29 | 139732 | 158885
13 | 35:18.36 | 0:51.74 | 158886 | 162784
14 | 36:10.35 | 2:57.57 | 162785 | 176116
15 | 39:08.17 | 5:49.44 | 176117 | 202335
16 | 44:57.61 | 0:36.28 | 202336 | 205063
17 | 45:34.14 | 4:04.04 | 205064 | 223367
18 | 49:38.18 | 7:16.33 | 223368 | 256100
19 | 56:54.51 | 13:16.07 | 256101 | 315807


Track 1

Filename D:\music\Musicgate's rips\Albert Mangelsdorff with The Jazz Sextet - European Tour '57 (Lone Hil Jazz 2006)\01 - These Foolish Things.wav

Pre-gap length 0:00:02.00

Peak level 99.4 %
Track quality 100.0 %
Test CRC 3344D2C8
Copy CRC 3344D2C8
Accurately ripped (confidence 2) [55FC8F79]
Copy OK

Track 2

Filename D:\music\Musicgate's rips\Albert Mangelsdorff with The Jazz Sextet - European Tour '57 (Lone Hil Jazz 2006)\02 - What a Difference a Day Makes.wav

Peak level 91.7 %
Track quality 100.0 %
Test CRC E03F97C0
Copy CRC E03F97C0
Accurately ripped (confidence 2) [00BE6044]
Copy OK

Track 3

Filename D:\music\Musicgate's rips\Albert Mangelsdorff with The Jazz Sextet - European Tour '57 (Lone Hil Jazz 2006)\03 - Embraceable You.wav

Peak level 88.2 %
Track quality 100.0 %
Test CRC 0894FC7E
Copy CRC 0894FC7E
Accurately ripped (confidence 2) [1130D354]
Copy OK

Track 4

Filename D:\music\Musicgate's rips\Albert Mangelsdorff with The Jazz Sextet - European Tour '57 (Lone Hil Jazz 2006)\04 - Our Love Is Here To Stay.wav

Peak level 90.7 %
Track quality 100.0 %
Test CRC EB1A8793
Copy CRC EB1A8793
Accurately ripped (confidence 2) [A6766C4E]
Copy OK

Track 5

Filename D:\music\Musicgate's rips\Albert Mangelsdorff with The Jazz Sextet - European Tour '57 (Lone Hil Jazz 2006)\05 - Lullaby Of Birdland.wav

Peak level 100.0 %
Track quality 100.0 %
Test CRC 496F2B8C
Copy CRC 496F2B8C
Accurately ripped (confidence 2) [BE9AAFE6]
Copy OK

Track 6

Filename D:\music\Musicgate's rips\Albert Mangelsdorff with The Jazz Sextet - European Tour '57 (Lone Hil Jazz 2006)\06 - Intro.wav

Peak level 96.9 %
Track quality 100.0 %
Test CRC 8ECA80F3
Copy CRC 8ECA80F3
Accurately ripped (confidence 2) [13EBF757]
Copy OK

Track 7

Filename D:\music\Musicgate's rips\Albert Mangelsdorff with The Jazz Sextet - European Tour '57 (Lone Hil Jazz 2006)\07 - Studio 15 (aka Jubilation).wav

Peak level 100.0 %
Track quality 100.0 %
Test CRC 35D08A76
Copy CRC 35D08A76
Accurately ripped (confidence 2) [F3BB8918]
Copy OK

Track 8

Filename D:\music\Musicgate's rips\Albert Mangelsdorff with The Jazz Sextet - European Tour '57 (Lone Hil Jazz 2006)\08 - Intro by Albert Mangelsdorff.wav

Peak level 75.8 %
Track quality 99.8 %
Test CRC ED157958
Copy CRC ED157958
Accurately ripped (confidence 2) [8DE52D1F]
Copy OK

Track 9

Filename D:\music\Musicgate's rips\Albert Mangelsdorff with The Jazz Sextet - European Tour '57 (Lone Hil Jazz 2006)\09 - I'll Close My Eyes.wav

Peak level 100.0 %
Track quality 99.9 %
Test CRC 46D95B0F
Copy CRC 46D95B0F
Accurately ripped (confidence 2) [B0282EA8]
Copy OK

Track 10

Filename D:\music\Musicgate's rips\Albert Mangelsdorff with The Jazz Sextet - European Tour '57 (Lone Hil Jazz 2006)\10 - Intro by Bob Cooper.wav

Peak level 73.2 %
Track quality 100.0 %
Test CRC 1D6D22AF
Copy CRC 1D6D22AF
Accurately ripped (confidence 2) [FB16D61E]
Copy OK

Track 11

Filename D:\music\Musicgate's rips\Albert Mangelsdorff with The Jazz Sextet - European Tour '57 (Lone Hil Jazz 2006)\11 - Angel Eyes.wav

Peak level 100.0 %
Track quality 99.9 %
Test CRC 55BE36CE
Copy CRC 55BE36CE
Accurately ripped (confidence 2) [F00B7910]
Copy OK

Track 12

Filename D:\music\Musicgate's rips\Albert Mangelsdorff with The Jazz Sextet - European Tour '57 (Lone Hil Jazz 2006)\12 - Tea For Two.wav

Peak level 100.0 %
Track quality 100.0 %
Test CRC AB4C468B
Copy CRC AB4C468B
Accurately ripped (confidence 2) [07FE654A]
Copy OK

Track 13

Filename D:\music\Musicgate's rips\Albert Mangelsdorff with The Jazz Sextet - European Tour '57 (Lone Hil Jazz 2006)\13 - Intro by Bud Shank.wav

Peak level 100.0 %
Track quality 100.0 %
Test CRC 8964DD91
Copy CRC 8964DD91
Accurately ripped (confidence 2) [76770EE2]
Copy OK

Track 14

Filename D:\music\Musicgate's rips\Albert Mangelsdorff with The Jazz Sextet - European Tour '57 (Lone Hil Jazz 2006)\14 - I Can't Get Started.wav

Peak level 100.0 %
Track quality 100.0 %
Test CRC A304B9CB
Copy CRC A304B9CB
Accurately ripped (confidence 2) [10AB3D29]
Copy OK

Track 15

Filename D:\music\Musicgate's rips\Albert Mangelsdorff with The Jazz Sextet - European Tour '57 (Lone Hil Jazz 2006)\15 - Tangerine.wav

Peak level 100.0 %
Track quality 100.0 %
Test CRC 0AEA4DBA
Copy CRC 0AEA4DBA
Accurately ripped (confidence 2) [03B4D62C]
Copy OK

Track 16

Filename D:\music\Musicgate's rips\Albert Mangelsdorff with The Jazz Sextet - European Tour '57 (Lone Hil Jazz 2006)\16 - Intro by Bud Shank.wav

Peak level 93.5 %
Track quality 100.0 %
Test CRC 83EC3ED4
Copy CRC 83EC3ED4
Accurately ripped (confidence 2) [D1261FB0]
Copy OK

Track 17

Filename D:\music\Musicgate's rips\Albert Mangelsdorff with The Jazz Sextet - European Tour '57 (Lone Hil Jazz 2006)\17 - The Nearness Of You.wav

Peak level 100.0 %
Track quality 99.9 %
Test CRC BC5F2726
Copy CRC BC5F2726
Accurately ripped (confidence 2) [8D0212E0]
Copy OK

Track 18

Filename D:\music\Musicgate's rips\Albert Mangelsdorff with The Jazz Sextet - European Tour '57 (Lone Hil Jazz 2006)\18 - A Night In Tunisia.wav

Peak level 100.0 %
Track quality 100.0 %
Test CRC 6A81FDC5
Copy CRC 6A81FDC5
Accurately ripped (confidence 2) [23D02B44]
Copy OK

Track 19

Filename D:\music\Musicgate's rips\Albert Mangelsdorff with The Jazz Sextet - European Tour '57 (Lone Hil Jazz 2006)\19 - I'll Remember April.wav

Peak level 100.0 %
Track quality 100.0 %
Test CRC FBA9ACB6
Copy CRC FBA9ACB6
Accurately ripped (confidence 2) [B6443534]
Copy OK


All tracks accurately ripped

No errors occurred

End of status report
avatar
Musicgate
Аксакал
Аксакал

Posts : 1018
Join date : 2010-09-01

View user profile

Back to top Go down

View previous topic View next topic Back to top

- Similar topics

 
Permissions in this forum:
You cannot reply to topics in this forum