Visible Wind(Canada) - Progressive rock, Neo-Prog

View previous topic View next topic Go down

Visible Wind(Canada) - Progressive rock, Neo-Prog

Post by kelia99 on Sat Sep 18, 2010 4:22 pm

Visible Wind - Narcissus Goes to the Moon (1996)




Origin: Canada
Genre: Progressive rock, Neo-Prog
Quality: (FLAC,cue,Log,Cover,3% Recovery record)
Size: 458 Mb

Track List:

1. A Succulent Anachronic Pastiche (2.19)
2. Fuzzy Concept (6.50)
3. By the River (2.08)
4. Xenophobia (6.31)
5. Introvenus (0.55)
6. Introvenus (10.57)
7. Lunar Doubts (7.56)
8. Join my Soul (2.44)
9. Race on a Pseudo Flying Carpet (2.52)
10. Nothing Left to Hide (4.11)
11. Ambulance (0.58)
12. The Awakening (20.59)
13.Strange Day's (3.04)



Total Time: 71:35



Line-up Musicians:

-Claude Rainville/electric and acoustic guitars
-Louis Roy/rickenbacker bass/taurus pedals
-Stephen Geysens/organ/mellotron/sythesisers/harmonium/fluite/vocals
-Luc Hebert/drums/acoustic and electronic percussion
Log EAC:
Exact Audio Copy V0.99 prebeta 5 from 4. May 2009

Отчёт EAC об извлечении, выполненном 21. июня 2010, 21:18

Visible Wind / Narcissus Goes to the Moon

Дисковод: HL-DT-STDVDRAM GSA-H66N Adapter: 3 ID: 0

Режим чтения : Достоверность
Использование точного потока : Да
Отключение кэша аудио : Да
Использование указателей C2 : Нет

Коррекция смещения при чтении : 667
Способность читать области Lead-in и Lead-out : Нет
Заполнение пропущенных сэмплов тишиной : Да
Удаление блоков с тишиной в начале и конце : Нет
При вычислениях CRC использовались нулевые сэмплы : Да
Интерфейс : Встроенный Win32-интерфейс для Win NT/2000

Выходной формат : Внутренние WAV-операции
Формат сэмплов : 44.100 Гц; 16 бит; стерео


TOC извлечённого CD

Трек | Старт | Длительность | Начальный сектор | Конечный сектор
---------------------------------------------------------------------
1 | 0:00.00 | 2:19.62 | 0 | 10486
2 | 2:19.62 | 6:50.00 | 10487 | 41236
3 | 9:09.62 | 1:57.15 | 41237 | 50026
4 | 11:07.02 | 6:35.68 | 50027 | 79719
5 | 17:42.70 | 0:55.72 | 79720 | 83916
6 | 18:38.67 | 10:53.43 | 83917 | 132934
7 | 29:32.35 | 7:49.47 | 132935 | 168156
8 | 37:22.07 | 2:23.20 | 168157 | 178901
9 | 39:45.27 | 2:41.40 | 178902 | 191016
10 | 42:26.67 | 4:06.58 | 191017 | 209524
11 | 46:33.50 | 0:53.15 | 209525 | 213514
12 | 47:26.65 | 21:02.40 | 213515 | 308204
13 | 68:29.30 | 3:06.02 | 308205 | 322156


Характеристики диапазона извлечения и сообщения об ошибках

Выбранный диапазон

Имя файла J:\Visible Wind - Narcissus Goes to the Moon (1996)\Visible Wind - Narcissus Goes to the Moon.wav

Пиковый уровень 100.0 %
Качество диапазона 100.0 %
CRC копии 994635F7
Копирование... OK

Ошибок не произошло


AccurateRip: сводка

Трек 1 точное извлечение (доверие 1) [CF7EA511]
Трек 2 точное извлечение (доверие 1) [D947F492]
Трек 3 точное извлечение (доверие 1) [C7089F64]
Трек 4 точное извлечение (доверие 1) [DEE58CE4]
Трек 5 точное извлечение (доверие 1) [5A8259FF]
Трек 6 точное извлечение (доверие 1) [E62E1243]
Трек 7 точное извлечение (доверие 1) [CB0D14EA]
Трек 8 точное извлечение (доверие 1) [48242817]
Трек 9 точное извлечение (доверие 1) [E83C5843]
Трек 10 точное извлечение (доверие 1) [BD67C782]
Трек 11 точное извлечение (доверие 1) [DA83E7C7]
Трек 12 точное извлечение (доверие 1) [66892AE9]
Трек 13 точное извлечение (доверие 1) [9F36295C]

Все треки извлечены точно

Конец отчёта


Last edited by kelia99 on Sun Oct 03, 2010 3:49 am; edited 1 time in total

_________________
Fools all of us... Basketball
avatar
kelia99

Posts : 308
Join date : 2010-09-01
Age : 56

View user profile http://in-rock-lossless.moole.ru/

Back to top Go down

Re: Visible Wind(Canada) - Progressive rock, Neo-Prog

Post by kelia99 on Sat Sep 18, 2010 4:28 pm

Visible Wind - Emergence (1994)



Origin: Canada
Genre: Progressive rock, Neo-Prog
Quality: (FLAC,cue,Log,Cover,3% Recovery record)
Size: 320 Mb
Source: torrenttilotilo

Track List:

1. Sweet perdition: (14:27)
a) Emergence
b) Sweet perdition
2. Interlude (1:35)
3. Face à la télévision (4:34)
4. Salesman #13 (4:32)
5. Nemesis (3:34)
6. Winter night (4:32)
7. Cryptarythm (1:50)
8. At the end of the road (3:51)
9. We'll meet again (6:29)



Total Time: 45:24



Line-up Musicians:

- Stephen Greysens / vocals, keyboards
- Luc "Bébert" Hébert / drums
- Claude "Fuji" Rainville / electric & acoustic guitars
- Dr. Louis Rayban-Roy / bass, Taurus pedals
Log EAC:
EAC extraction logfile from 15. October 2007, 10:15 for CD
Visible Wind / Emergence

Used drive : HL-DT-STCD-RW GCE-8523B Adapter: 1 ID: 0
Read mode : Secure with NO C2, accurate stream, disable cache
Read offset correction : 6
Overread into Lead-In and Lead-Out : No

Used output format : C:\Program Files\FLAC\flac.exe (User Defined Encoder)
128 kBit/s
Additional command line options : -8 -V -T "ARTIST=%a" -T "TITLE=%t" -T "ALBUM=%g" -T "DATE=%y" -T "TRACKNUMBER=%n" -T "GENRE=%m" -T "COMMENT=EAC Flac 1.1.4 -8" %s

Other options :
Fill up missing offset samples with silence : Yes
Delete leading and trailing silent blocks : No
Native Win32 interface for Win NT & 2000


Track 1
Filename D:\Visible Wind - Emergence (1994) [FLAC]\01 - Sweet Perdition.wav

Pre-gap length 0:00:02.42

Peak level 94.6 %
Track quality 100.0 %
Test CRC 9C41B539
Copy CRC 9C41B539
Copy OK

Track 2
Filename D:\Visible Wind - Emergence (1994) [FLAC]\02 - Interlude.wav

Pre-gap length 0:00:00.42

Peak level 28.3 %
Track quality 100.0 %
Test CRC F1E8A0B5
Copy CRC F1E8A0B5
Copy OK

Track 3
Filename D:\Visible Wind - Emergence (1994) [FLAC]\03 - Face A La Television.wav

Peak level 94.7 %
Track quality 100.0 %
Test CRC D2478710
Copy CRC D2478710
Copy OK

Track 4
Filename D:\Visible Wind - Emergence (1994) [FLAC]\04 - Salesman #13.wav

Peak level 94.6 %
Track quality 100.0 %
Test CRC 08A39293
Copy CRC 08A39293
Copy OK

Track 5
Filename D:\Visible Wind - Emergence (1994) [FLAC]\05 - Nemesis.wav

Peak level 94.7 %
Track quality 100.0 %
Test CRC 3978FDDD
Copy CRC 3978FDDD
Copy OK

Track 6
Filename D:\Visible Wind - Emergence (1994) [FLAC]\06 - Winter Night.wav

Peak level 94.7 %
Track quality 100.0 %
Test CRC DACCC75B
Copy CRC DACCC75B
Copy OK

Track 7
Filename D:\Visible Wind - Emergence (1994) [FLAC]\07 - Cryptarythm.wav

Peak level 89.6 %
Track quality 100.0 %
Test CRC 71E72680
Copy CRC 71E72680
Copy OK

Track 8
Filename D:\Visible Wind - Emergence (1994) [FLAC]\08 - At The End Of The Road.wav

Peak level 94.6 %
Track quality 100.0 %
Test CRC 7FDEF3EF
Copy CRC 7FDEF3EF
Copy OK

Track 9
Filename D:\Visible Wind - Emergence (1994) [FLAC]\09 - We'll Meet Again.wav

Peak level 94.6 %
Track quality 100.0 %
Test CRC DD7DC1DA
Copy CRC DD7DC1DA
Copy OK

No errors occured


End of status report


Last edited by kelia99 on Sun Oct 03, 2010 3:50 am; edited 1 time in total

_________________
Fools all of us... Basketball
avatar
kelia99

Posts : 308
Join date : 2010-09-01
Age : 56

View user profile http://in-rock-lossless.moole.ru/

Back to top Go down

Re: Visible Wind(Canada) - Progressive rock, Neo-Prog

Post by kelia99 on Sat Sep 18, 2010 4:28 pm

alex-200 wrote:
Visible Wind - Catharsis (1988)


Жанр: Progressive rock, Neo-Prog
Формат: ape (image + cue+ log + covers 300dpi)
Размер: 257 MB
Залито на: Narod (3% восстановление)
Источник: e-mule, релизер goodluck

Info:
VISIBLE WIND is a Progressive quartet from Quebec, which music alternates instrumental and vocal parts sung in English and French. The band offers an elaborated, contrasted, climatic, energetic, feverish Progressive music. They can evoke KING CRIMSON, EMERSON, LAKE & PALMER, CAMEL or YES by their melodies mixing virtuosity with a very interesting music that combines Mellotron and Harmonium with a more contemporary sound. Extra instruments include violin and flute.

The first album "Catharsis" is melodic neo-progressive to the edge of AOR styled rock music.
2nd album is VERY GENESIS influenced circa "Wind & Wuthering" or "And Then There Were Three" with hints ...
Their 3rd album reminds of MARILLION at times with a melodic and harmonic edge. More comparable to the UK scene ala PENDRAGON etc. rather than the Canadian.
4th album by long-lived Canadian band is their best release really recalling the glory days of GENESIS, CAMEL ...
5th album of GENESIS/MARILLION inspired prog rock from this long-lived Canadian group. A lot better than their previous releases. This offers splendid progressive with a melodic touch, but with lots of breaks, heavy organs & guitars, TULL flutes. Variated and cool. ALL ARE RECOMMENDED!!! (from progarchives.com)

Tracks Listing:

1. Blind regards (3:28)
2. The false truths (9:33)
3. Learning to bloom (4:10)
4. Wedding game (5:19)
5. Catharsis (5:39)
6. Wrong time, wrong place (6:38)
7. Les tortues schizophrènes marchent vers leur destin / Les trois lacs (8:54)

Total Time: 43:49

Line-up:

- Stephen Geysens / keyboards
- Luc Hébert / drums
- Louis Roy / bass
- Christopher Wells / vocals
- Philippe Woolgar / guitar



Last edited by kelia99 on Wed Oct 27, 2010 9:14 pm; edited 2 times in total

_________________
Fools all of us... Basketball
avatar
kelia99

Posts : 308
Join date : 2010-09-01
Age : 56

View user profile http://in-rock-lossless.moole.ru/

Back to top Go down

Re: Visible Wind(Canada) - Progressive rock, Neo-Prog

Post by andre88 on Wed Oct 27, 2010 8:39 pm

Hello Kellia99
Can you Reup the Catharsis Album?
avatar
andre88

Posts : 82
Join date : 2010-09-02
Age : 58
Location : Hannover

View user profile

Back to top Go down

Re: Visible Wind(Canada) - Progressive rock, Neo-Prog

Post by kelia99 on Wed Oct 27, 2010 9:11 pm

andre88 wrote:Hello Kellia99
Can you Reup the Catharsis Album?
And it is not my post. Address to alex-200 Wink

_________________
Fools all of us... Basketball
avatar
kelia99

Posts : 308
Join date : 2010-09-01
Age : 56

View user profile http://in-rock-lossless.moole.ru/

Back to top Go down

Re: Visible Wind(Canada) - Progressive rock, Neo-Prog

Post by andre88 on Wed Oct 27, 2010 9:31 pm

kelia99 wrote:
andre88 wrote:Hello Kellia99
Can you Reup the Catharsis Album?
And it is not my post. Address to alex-200 Wink
Thanks for the Info Very Happy
avatar
andre88

Posts : 82
Join date : 2010-09-02
Age : 58
Location : Hannover

View user profile

Back to top Go down

Re: Visible Wind(Canada) - Progressive rock, Neo-Prog

Post by Sponsored content


Sponsored content


Back to top Go down

View previous topic View next topic Back to top

- Similar topics

 
Permissions in this forum:
You cannot reply to topics in this forum