Tiles(United States) - Progressive rock,Heavy Prog

View previous topic View next topic Go down

Tiles(United States) - Progressive rock,Heavy Prog

Post by kelia99 on Fri Sep 17, 2010 11:49 pm

Tiles - Fence The Clear(1997)



Tiles biography
The American quartet TILES hails from Detroit. TILES has a Rush meets Extreme kind of a hard rock sound. Their debut disc was a bit on the simplistic side, but their latest music is a realm dominated by SHADOW GALLERY and ENCHANT. The music is atmospheric on a vast level and well orchestrated with lots of layers. There is a greater use of acoustic instruments (mandolin, acoustic guitar and violin) and ballad structures. They bring us further refinement in their magical blend of prog sensibility and hard-rock energy. For fans of a technical brand of semi-prog hard rock!

Year: 1997
Origin: United States
Genre: Progressive rock,Heavy Prog
Quality: (CDImage, FLAC,cue,Log, cover,3% Recovery record)
Size: 438 mb

Track List:

1. Patterns (4:31)
2. Beneath The Surface (5:00)
3. Cactus Valley (6:58)
4. Another's Hand (6:32)
5. The Wading Pool (6:24)
6. Gameshow (3:40)
7. Fallen Pieces (1:25)
8. Changing The Guard (7:18)
9. Gabby's Happy Song (0:50)
10. Checkerboards (14:43)

Total Time: 57:14

Line-up Musicians:

- Paul Rarick / vocals
- Chris Herin / guitars
- Jeff Whittle / bass
- Mark Evans / drums


Last edited by kelia99 on Sun Oct 03, 2010 4:13 am; edited 2 times in total

_________________
Fools all of us... Basketball
avatar
kelia99

Posts : 308
Join date : 2010-09-01
Age : 55

View user profile http://in-rock-lossless.moole.ru/

Back to top Go down

Re: Tiles(United States) - Progressive rock,Heavy Prog

Post by kelia99 on Fri Sep 17, 2010 11:50 pm

Tiles - Presents Of Mind (1999)


Скептики, твердящие о том, что вся заокеанская прогрессив-металлическая сцена 90-х сводится к бесконечному клонированию творений Queensryche и Dream Theater наконец-то посрамлены: своим вторым альбомом детройтский квартет Tiles блестяще доказал, что и творчество монстров Rush десятилетней давности по-прежнему является путеводной звездой для музыкантов, простирающих свои интересы далее отдела новинок ближайшего CD-магазина. Но не подумайте, что Tiles - прямолинейные последователи Rush (хотя на это намекает обложка, созданная Хью Саймом и работа над микшированием CD самого Терри Брауна): позаимствовав у великих канадцев структуру композиций и отчасти построение гитарных и басовых партий, Tiles небезуспешно пытается расширить свою аудиторию за счет применения мелодических ходов, более свойственных для коммерческго хард-рока ("Static"), а то и абсолютно AOR'овых по духу припевов ("Facing Failure"). Услышав же инструменталку "Ballad Of The Sacred Cows", можно запросто подумать, что мы имеем дело с неким голландским прог-металлическим составом, еще не подписанным по недосмотру на G.E.P. или Verglas Music. Если прибавить ко всему вышесказанному фанковые наклонности басиста Джеффа Уиттла, крайнюю изобретательность гитариста Криса Херина и гостевую работу басиста-виртуоза Кевина Чауна (Edwin Dare, Cosmosquad и Magnitude 9) в 11-минутном почти Pink Floyd'овском эпике "Reasonable Doubt", то восторг мировой рок-критики будет вполне понятен и объясним.

Origin: USA
Genre: Progressive rock/Hard rock/Art rock/Instrumental
Quality: (FLAC,cue,log,Cover,3% Recovery record)
Size: 481mb

Track List:

01. Static (05:43)
02. Modification (03:44)
03. Crossing Swords (01:06)
04. Facing Failure (05:42)
05. The Learning Curve (04:42)
06. Ballad of the Sacred Cows (06:58)
07. The Sandtrap Jig (00:48)
08. Taking Control (05:13)
09. Safe Procedures (07:04)
10. Reasonable Doubt (11:41)

Bonus tracks:

11. Patterns (Live) (04:05)
12. Token Pledge (Live) (06:50)

Total Time: 63:41

Line-up/Musicians:

- Mark Evans / Drums and Percussion
- Chris Herin / Electric & Acustic guitars,Mandolin and Keyboards
- Paul Rarick / Lead & Backing Vocals
- Jeff Whittle / Bass Guitar

Additional musicians:

-Kevin Chown / bass
-Matthew Parmenter / violin
-Sonya Mastick / Percussion




Last edited by kelia99 on Sun Oct 03, 2010 4:14 am; edited 1 time in total

_________________
Fools all of us... Basketball
avatar
kelia99

Posts : 308
Join date : 2010-09-01
Age : 55

View user profile http://in-rock-lossless.moole.ru/

Back to top Go down

Re: Tiles(United States) - Progressive rock,Heavy Prog

Post by kelia99 on Fri Sep 17, 2010 11:51 pm

Tiles - Window Dressing(2004)



Year: 2004
Origin: USA
Genre: Progressive rock/Hard rock/Art rock
Quality: (FLAC,cue,Log, cover,3% Recovery record)
Size: 466 mb

Track List:

1. Window Dressing (17:11)
2. Remember To Forget (5:00)
3. All She Knows (4:37)
4. Capture The Flag (8:58)
5. Tear-Water Tea (4:15)
6. Stop Gap (2:53)
7. Unicornicopia (5:10)
8. Paintings (4:41)
9. A.02 (1:14)
10. Slippers In The Snow (4:05)
11. Spindrift (9:25)

Total Time: 67:33

Line-up Musicians:

- Chris Herin / guitars
- Paul Rarick / vocals
- Jeff Whittle / bass
- Pat DeLeon / drums

Guest Musicians:
- Kim Mitchell / guitar on "Capture The Flag"
- Matthew Parmenter / violin on "Tear-Water Tea"
- Hugh Syme / keyboards on "Slippers In The Snow"
Log EAC:
Exact Audio Copy V0.99 prebeta 4 from 23. January 2008

Отчёт EAC об извлечении, выполненном 16. января 2010, 17:51

Tiles / Window Dressing (cd1)

Дисковод: HL-DT-STDVDRAM GSA-H66N Adapter: 3 ID: 0

Режим чтения : Достоверность
Использование точного потока : Да
Отключение кэша аудио : Да
Использование указателей C2 : Нет

Коррекция смещения при чтении : 667
Способность читать области Lead-in и Lead-out : Нет
Заполнение пропущенных сэмплов тишиной : Да
Удаление блоков с тишиной в начале и конце : Нет
При вычислениях CRC использовались нулевые сэмплы : Да
Интерфейс : Встроенный Win32-интерфейс для Win NT/2000

Выходной формат : Внутренние WAV-операции
Формат сэмплов : 44.100 Гц; 16 бит; стерео


TOC извлечённого CD

Трек | Старт | Длительность | Начальный сектор | Конечный сектор
---------------------------------------------------------------------
1 | 0:00.00 | 17:11.57 | 0 | 77381
2 | 17:11.57 | 5:00.08 | 77382 | 99889
3 | 22:11.65 | 4:37.05 | 99890 | 120669
4 | 26:48.70 | 8:58.07 | 120670 | 161026
5 | 35:47.02 | 4:15.33 | 161027 | 180184
6 | 40:02.35 | 2:53.25 | 180185 | 193184
7 | 42:55.60 | 5:10.52 | 193185 | 216486
8 | 48:06.37 | 4:41.00 | 216487 | 237561
9 | 52:47.37 | 1:14.60 | 237562 | 243171
10 | 54:02.22 | 4:05.73 | 243172 | 261619
11 | 58:08.20 | 9:25.15 | 261620 | 304009


Характеристики диапазона извлечения и сообщения об ошибках

Выбранный диапазон

Имя файла J:\Tiles-2004\Tiles -Window Dressing(2004)\Tiles - Window Dressing (cd1).wav

Пиковый уровень 100.0 %
Качество диапазона 100.0 %
CRC копии 99851E65
Копирование... OK

Ошибок не произошло


AccurateRip: сводка

Трек 1 точность не определена (достоверность 5) [76DB354E], AccurateRip вернул [0E6094A5]
Трек 2 точность не определена (достоверность 4) [D510F8F2], AccurateRip вернул [2B1D08DD]
Трек 3 точность не определена (достоверность 5) [C2CDF1C9], AccurateRip вернул [D485A9D3]
Трек 4 точность не определена (достоверность 4) [4F908462], AccurateRip вернул [4EEF7D84]
Трек 5 точность не определена (достоверность 5) [9B90BFE4], AccurateRip вернул [2B5F91AF]
Трек 6 точность не определена (достоверность 4) [53323B07], AccurateRip вернул [B0F4B96A]
Трек 7 точность не определена (достоверность 4) [D1DF09C3], AccurateRip вернул [5ECEF4F4]
Трек 8 точность не определена (достоверность 4) [2DBBD27F], AccurateRip вернул [3A1D007F]
Трек 9 точность не определена (достоверность 4) [2D47D714], AccurateRip вернул [BFF90846]
Трек 10 точность не определена (достоверность 4) [B345BD72], AccurateRip вернул [2B85AAE1]
Трек 11 точность не определена (достоверность 5) [F03A1AF7], AccurateRip вернул [F46BAEDE]

Ни один трек не прошёл проверки на точность
В вашей базе может быть иной вариант штамповки диска

Конец отчёта



Last edited by kelia99 on Sun Oct 03, 2010 4:14 am; edited 1 time in total

_________________
Fools all of us... Basketball
avatar
kelia99

Posts : 308
Join date : 2010-09-01
Age : 55

View user profile http://in-rock-lossless.moole.ru/

Back to top Go down

Re: Tiles(United States) - Progressive rock,Heavy Prog

Post by kelia99 on Fri Sep 17, 2010 11:51 pm

Tiles - Fly Paper(2008)



Year: 2008
Origin: United States
Genre: Progressive rock,Heavy Prog
Quality: ( FLAC,cue,Log, cover,3% Recovery record)
Size: 407 mb

Track List:

1. Hide In My Shadow (5:43)
2. Sacred & Mundane (5:28)
3. Back & Forth (6:02)
4. Landscrape (4:33)
5. Markers (6:57)
6. Dragons, Dreams & Daring Deeds (8:08)
7. Crowded Emptiness (4:07)
8. Hide & Seek (8:31)

Bonus track :
9. Passing Notes(3:37)

Total Time: 53:12

Line-up Musicians:

- Mark Evans / drums
- Chris Herin / guitar, keyboards
- Paul Rarick / vocals
- Jeff Whittle / bass

Guest musicians:
- Sonya Mastick / percussion
- Matthew Parmenter / keyboards & vocals
- Nate Mills / vocals
- Alex Lifeson, Alannah Myles, Kim Mitchell, Hugh Syme, Sonya Mastick
Log EAC:
Exact Audio Copy V0.99 prebeta 4 from 23. January 2008

Отчёт EAC об извлечении, выполненном 11. февраля 2010, 9:50

Tiles / Rly Paper

Дисковод: HL-DT-STDVDRAM GSA-H66N Adapter: 3 ID: 0

Режим чтения : Достоверность
Использование точного потока : Да
Отключение кэша аудио : Да
Использование указателей C2 : Нет

Коррекция смещения при чтении : 667
Способность читать области Lead-in и Lead-out : Нет
Заполнение пропущенных сэмплов тишиной : Да
Удаление блоков с тишиной в начале и конце : Нет
При вычислениях CRC использовались нулевые сэмплы : Да
Интерфейс : Встроенный Win32-интерфейс для Win NT/2000

Выходной формат : Внутренние WAV-операции
Формат сэмплов : 44.100 Гц; 16 бит; стерео


TOC извлечённого CD

Трек | Старт | Длительность | Начальный сектор | Конечный сектор
---------------------------------------------------------------------
1 | 0:00.00 | 5:43.18 | 0 | 25742
2 | 5:43.18 | 5:27.31 | 25743 | 50298
3 | 11:10.49 | 6:03.68 | 50299 | 77591
4 | 17:14.42 | 4:31.43 | 77592 | 97959
5 | 21:46.10 | 6:56.73 | 97960 | 129232
6 | 28:43.08 | 8:12.16 | 129233 | 166148
7 | 36:55.24 | 4:06.17 | 166149 | 184615
8 | 41:01.41 | 8:33.70 | 184616 | 223160
9 | 49:35.36 | 3:37.02 | 223161 | 239437


Характеристики диапазона извлечения и сообщения об ошибках

Выбранный диапазон

Имя файла J:\Tiles\Tiles - Rly Paper.wav

Пиковый уровень 98.9 %
Качество диапазона 99.9 %
CRC копии C0A69CA3
Копирование... OK

Ошибок не произошло


AccurateRip: сводка

Трек 1 нет в базе данных
Трек 2 нет в базе данных
Трек 3 нет в базе данных
Трек 4 нет в базе данных
Трек 5 нет в базе данных
Трек 6 нет в базе данных
Трек 7 нет в базе данных
Трек 8 нет в базе данных
Трек 9 нет в базе данных

Ни одного трека нет в базе AccurateRip

Конец отчёта


Last edited by kelia99 on Sun Oct 03, 2010 4:15 am; edited 1 time in total

_________________
Fools all of us... Basketball
avatar
kelia99

Posts : 308
Join date : 2010-09-01
Age : 55

View user profile http://in-rock-lossless.moole.ru/

Back to top Go down

Re: Tiles(United States) - Progressive rock,Heavy Prog

Post by sole-survivor on Sat Sep 18, 2010 1:13 am

А что Саня, первый диск Tiles (1994) нашёл или помочь? Wink

_________________


Когда при мне говорят "Все будет хорошо", Я не знаю, что они имеют в виду.
(с) Б.Г. "Зимняя Роза"
avatar
sole-survivor
Бургомистр
Бургомистр

Posts : 813
Join date : 2010-09-01
Age : 53
Location : alwayz vs ya!

View user profile http://www.musicalbox.ru/forum/

Back to top Go down

Re: Tiles(United States) - Progressive rock,Heavy Prog

Post by kelia99 on Sat Sep 18, 2010 1:23 am

sole-survivor wrote:А что Саня, первый диск Tiles (1994) нашёл или помочь? Wink
Вадим, он был на старом форуме... кажется Maikвыкладывал... Но щас нету.... Так что давай, у меня нету.

_________________
Fools all of us... Basketball
avatar
kelia99

Posts : 308
Join date : 2010-09-01
Age : 55

View user profile http://in-rock-lossless.moole.ru/

Back to top Go down

Re: Tiles(United States) - Progressive rock,Heavy Prog

Post by sole-survivor on Sat Sep 18, 2010 1:29 am

У тебя в теме я там его не нашёл, потому и спросил.
Ну, если Maik выкладывал, тогда может он и повторит? Smile

_________________


Когда при мне говорят "Все будет хорошо", Я не знаю, что они имеют в виду.
(с) Б.Г. "Зимняя Роза"
avatar
sole-survivor
Бургомистр
Бургомистр

Posts : 813
Join date : 2010-09-01
Age : 53
Location : alwayz vs ya!

View user profile http://www.musicalbox.ru/forum/

Back to top Go down

Re: Tiles(United States) - Progressive rock,Heavy Prog

Post by Sponsored content


Sponsored content


Back to top Go down

View previous topic View next topic Back to top

- Similar topics

 
Permissions in this forum:
You cannot reply to topics in this forum