Neverland(Turkey / Greece) - Progressive / Symphonic Metal

View previous topic View next topic Go down

Neverland(Turkey / Greece) - Progressive / Symphonic Metal

Post by kelia99 on Sat Sep 18, 2010 3:48 pm

Neverland - Reversing Time (2008)



Турецкая группа Neverland, несмотря на свое экзотическое происхождение, завоевала мое доверие около года назад. Долгое время мне приходилось держаться в предвкушении выхода их новой работы. Теперь, когда за плечами этих музыкантов целых два выпущенных полноформатных альбома, можно с большим удовольствием рассказать об этой группе.
Neverland задумывался как совместный проект турецкой группы Dreamtone и греческой певицы Iris Mavraki. Dreamtone – один из самых заметных коллективов на турецкой метал-сцене, который открывал концерты таких групп как Megadeth, Dream Theater и Blind Guardian. Iris Mavraki – опытная певица в жанре классической музыки – она много выступала в Греции и Турции в сопровождении симфонических оркестров, а также участвовала во многих антивоенных концертах. Для нее Neverland – первая попытка попробовать себя в жанре тяжелой музыки.

Мое знакомство с Neverland началось с их дебютного альбома «Reversing Time», выпущенного в 2008 году. Это грандиозная концептуальная работа, в записи которой принимал участие Стамбульский Филармонический Оркестр, наряду с которым свою лепту в создание альбома внесли специально приглашенные музыканты: вокалист и композитор Blind Guardian – Hansi Kursch, вокалист и гитарист Evergrey – Tom Englund, вокалист Shadow Gallery – Mike Baker (скончавшийся от сердечного приступа 29 октября 2008 года в возрасте 45 лет) и действующий гитарист-клавишник Shadow Gallery – Gary Wehrkamp. В альбоме были задействованы различные фолк-инструменты и саксофон. Весьма симпатичную обложку для альбома нарисовал французский художник Jean Pascal Fournier (Edguy, Avantasia).

«Reversing Time» оказался очень удачным стартом. Турецкие музыканты начинали запись без поддержки какой-либо записывающей компании, но качество альбома нельзя было не заметить – и вскоре лейбл AFM Records предложил им контракт. Хорошие отзывы в прессе и поклонников о группе заставили отказаться от идеи, что Neverland – это всего лишь музыкальный проект. Они превратились в полноценную группу и начали работать над своим вторым альбомом.
Блог Александра Астапова

Origin: Turkey / Greece
Genre: Progressive / Symphonic Metal
Quality: (FLAC,cue,Log,Cover,3% Recovery record)
Size: 404 Mb

Track List:

01. Shooting Star
02. To Lose the Sun (feat. Hansi Kursch)
03. Mankind Is A Lie
04. Everlasting Tranquility
05. Reversing Time (feat. Mike Baker)
06. Black Water
07. Mountain of Judgement
08. Mountain of Joy (feat. Gary Wehrkamp)
09. World Beyond These Walls (feat. Tom Englund)
10. Transcending Miracle
11. Once Again This Life



Total Time: 50:28



Line-up Musicians:

-Iris Mavraki / vocal
-Oganalp Canatan / drums
-Onur Ozkoc / guitars
-Burak Kahraman / guitars
-Can Dedekarginoglu / bass
Log EAC:
Exact Audio Copy V0.99 prebeta 5 from 4. May 2009

Отчёт EAC об извлечении, выполненном 6. июня 2010, 11:48

Neverland [Dreamtone & Iris Mavraki's] / Reversing Time

Дисковод: HL-DT-STDVDRAM GSA-H66N Adapter: 3 ID: 0

Режим чтения : Достоверность
Использование точного потока : Да
Отключение кэша аудио : Да
Использование указателей C2 : Нет

Коррекция смещения при чтении : 667
Способность читать области Lead-in и Lead-out : Нет
Заполнение пропущенных сэмплов тишиной : Да
Удаление блоков с тишиной в начале и конце : Нет
При вычислениях CRC использовались нулевые сэмплы : Да
Интерфейс : Встроенный Win32-интерфейс для Win NT/2000

Выходной формат : Внутренние WAV-операции
Формат сэмплов : 44.100 Гц; 16 бит; стерео


TOC извлечённого CD

Трек | Старт | Длительность | Начальный сектор | Конечный сектор
---------------------------------------------------------------------
1 | 0:00.00 | 4:20.13 | 0 | 19512
2 | 4:20.13 | 5:54.42 | 19513 | 46104
3 | 10:14.55 | 4:18.07 | 46105 | 65461
4 | 14:32.62 | 4:07.02 | 65462 | 83988
5 | 18:39.64 | 4:13.46 | 83989 | 103009
6 | 22:53.35 | 6:35.54 | 103010 | 132688
7 | 29:29.14 | 1:46.41 | 132689 | 140679
8 | 31:15.55 | 4:26.53 | 140680 | 160682
9 | 35:42.33 | 3:57.03 | 160683 | 178460
10 | 39:39.36 | 6:18.05 | 178461 | 206815
11 | 45:57.41 | 4:31.19 | 206816 | 227159


Характеристики диапазона извлечения и сообщения об ошибках

Выбранный диапазон

Имя файла J:\Neverland - Reversing Time (2008)\Neverland [Dreamtone & Iris Mavraki's] - Reversing Time.wav

Пиковый уровень 100.0 %
Качество диапазона 100.0 %
CRC копии 21D74E91
Копирование... OK

Ошибок не произошло


AccurateRip: сводка

Трек 1 нет в базе данных
Трек 2 нет в базе данных
Трек 3 нет в базе данных
Трек 4 нет в базе данных
Трек 5 нет в базе данных
Трек 6 нет в базе данных
Трек 7 нет в базе данных
Трек 8 нет в базе данных
Трек 9 нет в базе данных
Трек 10 нет в базе данных
Трек 11 нет в базе данных

Ни одного трека нет в базе AccurateRip

Конец отчёта


Last edited by kelia99 on Sun Oct 03, 2010 4:02 am; edited 1 time in total

_________________
Fools all of us... Basketball
avatar
kelia99

Posts : 308
Join date : 2010-09-01
Age : 56

View user profile http://in-rock-lossless.moole.ru/

Back to top Go down

Re: Neverland(Turkey / Greece) - Progressive / Symphonic Metal

Post by kelia99 on Sat Sep 18, 2010 3:49 pm

Neverland - Ophidia (2010)



«Ophidia» кажется немного тяжелее, чем предыдущий альбом Neverland. Связано ли это с тем, что группа больше склонилась в своем творчестве к музыке в стиле power/progressive, а не melodic sympho? Или просто-напросто сказалось отсутствие оркестра при записи нового альбома?


Музыка Neverland в целом выходит за рамки прогрессивного метала. Несмотря на корни Dreamtone, лежащие в этом жанре, и на тот факт, что все приглашенные музыканты являются известными личностями в мире метала, мелодии Neverland очень разнообразны и подходят под описание прогрессивного и классического рока, а также симфонического power metal.

Казалось бы, в результате работы с симфоническим оркестром должен получаться очень мощный звук, но это не совсем так. Эта музыка в меру сложна и тяжела, скорость игры не высока. Обильно используются клавишные инструменты, делающие звучание максимально мелодичным. У Neverland вошло в привычку делать последние треки в своих альбомах инструментальными, которые заслуживают отдельного внимания.

Одним из достоинств группы является вкрапление ими в свою музыку национальных мотивов. Турецкий колорит особенно заметен в песне «Mankind Is A Lie» из альбома «Reversing Time». Основу для лирики песен составляют фантастические истории и рассказы о героях.

Группа выступает в основном на различных турецких фестивалях и ездит в качестве разогрева с более именитыми товарищами.
Блог Александра Астапова

Origin: Turkey / Greece
Genre: Progressive / Symphonic Metal
Quality: (FLAC,cue,Log,Cover,3% Recovery record)
Size: 479 Mb

Track List:

01. This Voice Inside
02. Silence the Wolves
03. Ophidia
04. Will of God
05. Invisible War
06. Places Unknown
07. No One Leaves the Hive
08. Speak to Me
09. Ashes to Fall
10. Final Odyssey
11. The Forests of Hope (CD bonus track)
12. Dying Threads (CD bonus track)
13. Into the Horizon (instrumental)



Total Time: 60:51



Line-up Musicians:

-Oganalp Canatan / vocals
Iris Mavraki / vocals
-Onur Ozkoc / guitars)
-Burak Kahraman / guitars)
-Emrecan Sevdin / drums)
-Can Dedekarginoglu / bass)
-Guney Ozsan / keyboards)
Log EAC:
Exact Audio Copy V0.99 prebeta 5 from 4. May 2009

Отчёт EAC об извлечении, выполненном 6. июня 2010, 12:43

Neverland [Dreamtone & Iris Mavraki's] / Ophidia

Дисковод: HL-DT-STDVDRAM GSA-H66N Adapter: 3 ID: 0

Режим чтения : Достоверность
Использование точного потока : Да
Отключение кэша аудио : Да
Использование указателей C2 : Нет

Коррекция смещения при чтении : 667
Способность читать области Lead-in и Lead-out : Нет
Заполнение пропущенных сэмплов тишиной : Да
Удаление блоков с тишиной в начале и конце : Нет
При вычислениях CRC использовались нулевые сэмплы : Да
Интерфейс : Встроенный Win32-интерфейс для Win NT/2000

Выходной формат : Внутренние WAV-операции
Формат сэмплов : 44.100 Гц; 16 бит; стерео


TOC извлечённого CD

Трек | Старт | Длительность | Начальный сектор | Конечный сектор
---------------------------------------------------------------------
1 | 0:00.00 | 5:33.70 | 0 | 25044
2 | 5:33.70 | 5:02.52 | 25045 | 47746
3 | 10:36.47 | 5:34.58 | 47747 | 72854
4 | 16:11.30 | 2:58.42 | 72855 | 86246
5 | 19:09.72 | 5:20.15 | 86247 | 110261
6 | 24:30.12 | 4:23.34 | 110262 | 130020
7 | 28:53.46 | 4:12.12 | 130021 | 148932
8 | 33:05.58 | 5:38.26 | 148933 | 174308
9 | 38:44.09 | 4:57.23 | 174309 | 196606
10 | 43:41.32 | 4:40.07 | 196607 | 217613
11 | 48:21.39 | 1:50.49 | 217614 | 225912
12 | 50:12.13 | 5:27.53 | 225913 | 250490
13 | 55:39.66 | 5:11.42 | 250491 | 273857


Характеристики диапазона извлечения и сообщения об ошибках

Выбранный диапазон

Имя файла J:\Neverland - Ophidia (2010)\Neverland [Dreamtone & Iris Mavraki's] - Ophidia.wav

Пиковый уровень 98.8 %
Качество диапазона 100.0 %
CRC копии BC565927
Копирование... OK

Ошибок не произошло


AccurateRip: сводка

Трек 1 нет в базе данных
Трек 2 нет в базе данных
Трек 3 нет в базе данных
Трек 4 нет в базе данных
Трек 5 нет в базе данных
Трек 6 нет в базе данных
Трек 7 нет в базе данных
Трек 8 нет в базе данных
Трек 9 нет в базе данных
Трек 10 нет в базе данных
Трек 11 нет в базе данных
Трек 12 нет в базе данных
Трек 13 нет в базе данных

Ни одного трека нет в базе AccurateRip

Конец отчёта

_________________
Fools all of us... Basketball
avatar
kelia99

Posts : 308
Join date : 2010-09-01
Age : 56

View user profile http://in-rock-lossless.moole.ru/

Back to top Go down

View previous topic View next topic Back to top

- Similar topics

 
Permissions in this forum:
You cannot reply to topics in this forum