Indukti(Poland) - Experimental/Post Metal

View previous topic View next topic Go down

Indukti(Poland) - Experimental/Post Metal

Post by kelia99 on Fri Sep 17, 2010 12:21 am



Понравится всем любителям Riverside.
Арфа, виолончель... волшебная музыка



Indukti - S.U.S.A.R. (2005)



Year: 2005
Origin: Poland
Genre: Experimental/Post Metal
Quality: (FLAC,cue,Log,Cover,3% Recovery record)
Size: 346 Mb

Track List:

1. Freder (7:30)
2. Cold Inside (4:06)
3. No-11812 (8:00)
4. Shade (4:29)
5. Uluru (6:34)
6. No-11811 (7:25)
7. Weak (9:37)

Total Time: 38:05

Line-up / Musicians:

- Ewa Jablonska / violin
- Piotr Kocimski / guitars
- Maciek Adamczyk / bass
- Maciej Jaskiewicz / guitars
- Wawrzyniec Dramowicz / drums

With:
- Anna Faber / harp
- Mariusz Duda / vocals ( Riverside)
Log EAC:
Exact Audio Copy V0.99 prebeta 5 from 4. May 2009

EAC extraction logfile from 6. September 2010, 5:38

Indukti / S.U.S.A.R.

Used drive : HL-DT-STDVDRAM GSA-H66N Adapter: 3 ID: 0

Read mode : Secure
Utilize accurate stream : Yes
Defeat audio cache : Yes
Make use of C2 pointers : No

Read offset correction : 667
Overread into Lead-In and Lead-Out : No
Fill up missing offset samples with silence : Yes
Delete leading and trailing silent blocks : No
Null samples used in CRC calculations : Yes
Used interface : Native Win32 interface for Win NT & 2000

Used output format : Internal WAV Routines
Sample format : 44.100 Hz; 16 Bit; Stereo


TOC of the extracted CD

Track | Start | Length | Start sector | End sector
---------------------------------------------------------
1 | 0:00.00 | 7:31.53 | 0 | 33877
2 | 7:31.53 | 4:05.33 | 33878 | 52285
3 | 11:37.11 | 8:00.41 | 52286 | 88326
4 | 19:37.52 | 4:28.16 | 88327 | 108442
5 | 24:05.68 | 6:34.33 | 108443 | 138025
6 | 30:40.26 | 7:25.40 | 138026 | 171440
7 | 38:05.66 | 9:35.08 | 171441 | 214573


Range status and errors

Selected range

Filename E:\indKT-SSR05\Indukti - S.U.S.A.R. (2005)\Indukti - S.U.S.A.R..wav

Peak level 100.0 %
Range quality 100.0 %
Copy CRC E0060D12
Copy OK

No errors occurred


AccurateRip summary

Track 1 not present in database
Track 2 not present in database
Track 3 not present in database
Track 4 not present in database
Track 5 not present in database
Track 6 not present in database
Track 7 not present in database

None of the tracks are present in the AccurateRip database

End of status report


Last edited by kelia99 on Sun Oct 03, 2010 4:28 am; edited 1 time in total

_________________
Fools all of us... Basketball
avatar
kelia99

Posts : 308
Join date : 2010-09-01
Age : 56

View user profile http://in-rock-lossless.moole.ru/

Back to top Go down

Indukti - IDMEN (2009)

Post by kelia99 on Fri Sep 17, 2010 12:23 am

Indukti - IDMEN (2009)



Прогрессив-рок из Польшы, в ключе THE PORCUPINE TREE и BLACKFIELD. Новый студийный альбом.


Year: 2009
Origin: Poland
Genre: Progressive rock,Progressive metal
Quality: (FLAC,cue,Log, not cover,3% Recovery record)
Size: 497 mb

Треклист:

01.Sansara
02.Tusan Homichi Tuvota
03.Sunken Bell
04....and Who's the God Now?!
05.Indukted
06.Aemaet
07.Nemesis Voices
08.Ninth Wave

Total Time: 63:32

Line-up Musicians:

-Ewa Jabіoсska / violin
-Maciej Jaokiewicz / guitar
- Kocimski / guitar
-Andrzej Kaczyñsk / bass
-Wawrzyniec Dramowicz / drums
Log EAC:
Exact Audio Copy V0.99 prebeta 4 from 23. January 2008

Отчёт EAC об извлечении, выполненном 19. августа 2009, 2:49

Indukti / IDMEN

Дисковод: HL-DT-STDVDRAM GSA-H66N Adapter: 3 ID: 0

Режим чтения : Достоверность
Использование точного потока : Да
Отключение кэша аудио : Да
Использование указателей C2 : Нет

Коррекция смещения при чтении : 667
Способность читать области Lead-in и Lead-out : Нет
Заполнение пропущенных сэмплов тишиной : Да
Удаление блоков с тишиной в начале и конце : Нет
При вычислениях CRC использовались нулевые сэмплы : Да
Интерфейс : Встроенный Win32-интерфейс для Win NT/2000

Выходной формат : Внутренние WAV-операции
Формат сэмплов : 44.100 Гц; 16 бит; стерео


TOC извлечённого CD

Трек | Старт | Длительность | Начальный сектор | Конечный сектор
---------------------------------------------------------------------
1 | 0:00.00 | 8:14.15 | 0 | 37064
2 | 8:14.15 | 9:05.24 | 37065 | 77963
3 | 17:19.39 | 2:31.11 | 77964 | 89299
4 | 19:50.50 | 10:27.16 | 89300 | 136340
5 | 30:17.66 | 6:53.22 | 136341 | 167337
6 | 37:11.13 | 8:27.01 | 167338 | 205363
7 | 45:38.14 | 6:21.55 | 205364 | 233993
8 | 51:59.69 | 11:32.10 | 233994 | 285903


Характеристики диапазона извлечения и сообщения об ошибках

Выбранный диапазон

Имя файла J:\Rapida\Lossless\indukti-2009\Indukti - IDMEN.wav

Пиковый уровень 100.0 %
Качество диапазона 100.0 %
CRC копии AAD888EA
Копирование... OK

Ошибок не произошло


AccurateRip: сводка

Трек 1 нет в базе данных
Трек 2 нет в базе данных
Трек 3 нет в базе данных
Трек 4 нет в базе данных
Трек 5 нет в базе данных
Трек 6 нет в базе данных
Трек 7 нет в базе данных
Трек 8 нет в базе данных

Ни одного трека нет в базе AccurateRip

Конец отчёта


Last edited by kelia99 on Sun Oct 03, 2010 4:29 am; edited 2 times in total

_________________
Fools all of us... Basketball
avatar
kelia99

Posts : 308
Join date : 2010-09-01
Age : 56

View user profile http://in-rock-lossless.moole.ru/

Back to top Go down

Re: Indukti(Poland) - Experimental/Post Metal

Post by Maik on Fri Sep 17, 2010 12:32 am

ув. kelia99, это ваши рипы, или из сЕти? спрашиваю, потому как, релиз без сканов мне уже где-то попадался...

Maik

Posts : 41
Join date : 2010-09-01

View user profile

Back to top Go down

Re: Indukti(Poland) - Experimental/Post Metal

Post by kelia99 on Fri Sep 17, 2010 12:41 am

Maik wrote:ув. kelia99, это ваши рипы, или из сЕти? спрашиваю, потому как, релиз без сканов мне уже где-то попадался...
Первый из сети, Второй мой, но при переносе сканы потерялись. Я сейчас их залью отдельно

_________________
Fools all of us... Basketball
avatar
kelia99

Posts : 308
Join date : 2010-09-01
Age : 56

View user profile http://in-rock-lossless.moole.ru/

Back to top Go down

Re: Indukti(Poland) - Experimental/Post Metal

Post by Sponsored content


Sponsored content


Back to top Go down

View previous topic View next topic Back to top

- Similar topics

 
Permissions in this forum:
You cannot reply to topics in this forum