Fromuz(Uzbekistan) - Progressive/Rock/Jazz Rock/Fusion

View previous topic View next topic Go down

Fromuz(Uzbekistan) - Progressive/Rock/Jazz Rock/Fusion

Post by kelia99 on Sat Sep 18, 2010 3:01 am

Fromuz - Audio Diplomacy(2007)



Live, released in 2007
FROMUZ был сформирован летом 2004 в городе Ташкенте.
История группы очень проста. Гитарист Виталий Попелов, и его приятель, басист , Андрей Мара-Новик, решили, играть музыку вместе. Они хотели играть такую музыку, которая принесет очень большое удовольствие для себя, которая могла помочь выразить эмоции, выразить их идеи и чувства.

Первые эксперименты, играя только вдвоём, не удовлетворяли своим ожиданиям. Однако, поиск аналогично мыслящих людей не занял слишком много времени. Старые друзья, такие как барабанщик, Владимир Бадиров, и композитор/аранжировщик (и актер), Альберт Хэлмерзэйев (клавиатура), приехали, чтобы поддержать новый проект. У каждого были: его собственный опыт, собственный вкус и рвение, личное видение мира. Общей связью была искренняя любовь к сложной музыке, с высокими требованиями к творческому потенциалу и работе. Группа согласилась, что музыка будет не коммерческой. Их цель состояла в том, чтобы поднять уровень качества инструментальной музыки. Это только подтвердило их желание продолжить сотрудничество. Нет никакого отдельного автора или лидера в группе. Каждая композиция рождалась общими усилиями, методом попыток и экспериментов, полетом воображения и эмоций. Может быть это - причина, почему есть несколько тем в каждой композиции, темпе и ритме. Часто темы кажутся не только богатыми, но также и сложными в их структуре.

Origin: Uzbekistan
Genre: Progressive/Rock/Jazz Rock/Fusion
Quality: (FLAC,cue,Log,Cover,3% Recovery record)
Size: 555 Mb

Track List:

1. Intro (6:11)
2. From Fromuz (10:12)
3. Wax Inhabitants Town (12:36)
4. Gameplay Imitation (8:18)
5. Spare Wheel (8:37)
6. Familiarization Results (7:33)
7. Harry Heller Theater (12:13)
8. Babylon Dreams (9:16)

Total Time: 74:41

Line-up Musicians:

- Andrew Mara-Novik / bass
- Vitaly Popeloff / guitars
- Albert Khalmurzayev / keyboards
- Vladimir Badirov / drums & percussion
Log EAC:
Exact Audio Copy V0.99 prebeta 5 from 4. May 2009

Отчёт EAC об извлечении, выполненном 24. февраля 2010, 16:52

Fromuz / Audio Diplomacy

Дисковод: HL-DT-STDVDRAM GSA-H66N Adapter: 3 ID: 0

Режим чтения : Достоверность
Использование точного потока : Да
Отключение кэша аудио : Да
Использование указателей C2 : Нет

Коррекция смещения при чтении : 667
Способность читать области Lead-in и Lead-out : Нет
Заполнение пропущенных сэмплов тишиной : Да
Удаление блоков с тишиной в начале и конце : Нет
При вычислениях CRC использовались нулевые сэмплы : Да
Интерфейс : Встроенный Win32-интерфейс для Win NT/2000

Выходной формат : Внутренние WAV-операции
Формат сэмплов : 44.100 Гц; 16 бит; стерео


TOC извлечённого CD

Трек | Старт | Длительность | Начальный сектор | Конечный сектор
---------------------------------------------------------------------
1 | 0:00.00 | 6:11.01 | 0 | 27825
2 | 6:11.01 | 10:11.09 | 27826 | 73659
3 | 16:22.10 | 12:35.32 | 73660 | 130316
4 | 28:57.42 | 8:17.49 | 130317 | 167640
5 | 37:15.16 | 8:37.41 | 167641 | 206456
6 | 45:52.57 | 7:33.48 | 206457 | 240479
7 | 53:26.30 | 12:12.70 | 240480 | 295449
8 | 65:39.25 | 9:16.19 | 295450 | 337168


Характеристики диапазона извлечения и сообщения об ошибках

Выбранный диапазон

Имя файла J:\Fromuz - 2007 - Audio Diplomacy\Fromuz - Audio Diplomacy.wav

Пиковый уровень 100.0 %
Качество диапазона 99.9 %
CRC копии 8E039DA5
Копирование... OK

Ошибок не произошло


AccurateRip: сводка

Трек 1 нет в базе данных
Трек 2 нет в базе данных
Трек 3 нет в базе данных
Трек 4 нет в базе данных
Трек 5 нет в базе данных
Трек 6 нет в базе данных
Трек 7 нет в базе данных
Трек 8 нет в базе данных

Ни одного трека нет в базе AccurateRip

Конец отчёта


Last edited by kelia99 on Sun Oct 03, 2010 3:22 am; edited 1 time in total

_________________
Fools all of us... Basketball
avatar
kelia99

Posts : 308
Join date : 2010-09-01
Age : 55

View user profile http://in-rock-lossless.moole.ru/

Back to top Go down

Re: Fromuz(Uzbekistan) - Progressive/Rock/Jazz Rock/Fusion

Post by kelia99 on Sat Sep 18, 2010 3:02 am

Fromuz - Overlook(2008)



Studio Album, released in 2008

Origin: Uzbekistan
Genre: Progressive/Rock/Jazz Rock/Fusion
Quality: (FLAC,cue,Log,Cover,3% Recovery record)
Size:498 Mb

Track List:

1. Stone Salad (15:17)
2. Other Side Of The Water (14:09)
3. Crashmind (10:51)
4. 13th August (11:53)
5. Return To W.I.T. (17:00)

Total time: 69:12

Line-up Musicians:

- Andrew Mara-Novik / bass
- Vitaly Popeloff / guitars
- Albert Khalmurzayev / keyboards
- Vladimir Badirov / drums & percussion
Log EAC:
Exact Audio Copy V0.99 prebeta 5 from 4. May 2009

Отчёт EAC об извлечении, выполненном 24. февраля 2010, 16:08

Fromuz / Overlook

Дисковод: HL-DT-STDVDRAM GSA-H66N Adapter: 3 ID: 0

Режим чтения : Достоверность
Использование точного потока : Да
Отключение кэша аудио : Да
Использование указателей C2 : Нет

Коррекция смещения при чтении : 667
Способность читать области Lead-in и Lead-out : Нет
Заполнение пропущенных сэмплов тишиной : Да
Удаление блоков с тишиной в начале и конце : Нет
При вычислениях CRC использовались нулевые сэмплы : Да
Интерфейс : Встроенный Win32-интерфейс для Win NT/2000

Выходной формат : Внутренние WAV-операции
Формат сэмплов : 44.100 Гц; 16 бит; стерео


TOC извлечённого CD

Трек | Старт | Длительность | Начальный сектор | Конечный сектор
---------------------------------------------------------------------
1 | 0:00.00 | 15:17.61 | 0 | 68835
2 | 15:17.61 | 14:08.70 | 68836 | 132505
3 | 29:26.56 | 10:51.51 | 132506 | 181381
4 | 40:18.32 | 11:53.41 | 181382 | 234897
5 | 52:11.73 | 17:00.46 | 234898 | 311443


Характеристики диапазона извлечения и сообщения об ошибках

Выбранный диапазон

Имя файла J:\Fromuz - 2008 - Overlook\Fromuz - Overlook.wav

Пиковый уровень 96.6 %
Качество диапазона 99.9 %
CRC копии E6873F5C
Копирование... OK

Ошибок не произошло


AccurateRip: сводка

Трек 1 точное извлечение (доверие 2) [C674CFB1]
Трек 2 точное извлечение (доверие 2) [CEB6B443]
Трек 3 точное извлечение (доверие 2) [1695453A]
Трек 4 точное извлечение (доверие 2) [5803DAF4]
Трек 5 точное извлечение (доверие 2) [B21A03F4]

Все треки извлечены точно

Конец отчёта


Last edited by kelia99 on Sun Oct 03, 2010 3:22 am; edited 1 time in total

_________________
Fools all of us... Basketball
avatar
kelia99

Posts : 308
Join date : 2010-09-01
Age : 55

View user profile http://in-rock-lossless.moole.ru/

Back to top Go down

Re: Fromuz(Uzbekistan) - Progressive/Rock/Jazz Rock/Fusion

Post by kelia99 on Sat Sep 18, 2010 3:03 am

Fromuz - Seventh Story(2010)



Studio Album, released in 2010

Origin: Uzbekistan
Genre: Progressive/Rock/Jazz Rock/Fusion
Quality: (FLAC,cue,Log,Cover,3% Recovery record)
Size: 588 Mb

Track List:

1. Perfect Place (4:04)
2. Parallels (20:01)
3. Desert Circle (16:13)
4. Bell Of The Earth (3:16)
5. Taken (18:09)
6. Influence Of Time (11:50)
7. Perfect Love (4:40)

Total Time: 78:08

Line-up Musicians:

- Vitaly Popeloff / guitars
- Albert Khalmurzaev / keyboards, acoustic guitar & vibraphone
- Igor Elizov / grand piano & keyboards
- Ali Izmailov / drums, percussion & tubular bells
- Sur'at Kasimov / bass
Log EAC:
Exact Audio Copy V0.99 prebeta 5 from 4. May 2009

Отчёт EAC об извлечении, выполненном 24. февраля 2010, 16:22

Fromuz / Seventh Story

Дисковод: HL-DT-STDVDRAM GSA-H66N Adapter: 3 ID: 0

Режим чтения : Достоверность
Использование точного потока : Да
Отключение кэша аудио : Да
Использование указателей C2 : Нет

Коррекция смещения при чтении : 667
Способность читать области Lead-in и Lead-out : Нет
Заполнение пропущенных сэмплов тишиной : Да
Удаление блоков с тишиной в начале и конце : Нет
При вычислениях CRC использовались нулевые сэмплы : Да
Интерфейс : Встроенный Win32-интерфейс для Win NT/2000

Выходной формат : Внутренние WAV-операции
Формат сэмплов : 44.100 Гц; 16 бит; стерео


TOC извлечённого CD

Трек | Старт | Длительность | Начальный сектор | Конечный сектор
---------------------------------------------------------------------
1 | 0:00.00 | 4:02.54 | 0 | 18203
2 | 4:02.54 | 20:01.15 | 18204 | 108293
3 | 24:03.69 | 16:13.56 | 108294 | 181324
4 | 40:17.50 | 3:16.41 | 181325 | 196065
5 | 43:34.16 | 18:09.42 | 196066 | 277782
6 | 61:43.58 | 11:50.44 | 277783 | 331076
7 | 73:34.27 | 4:40.52 | 331077 | 352128


Характеристики диапазона извлечения и сообщения об ошибках

Выбранный диапазон

Имя файла J:\Fromuz - 2009 - Seventh Story\Fromuz - Seventh Story.wav

Пиковый уровень 100.0 %
Качество диапазона 99.9 %
CRC копии 3BBD9293
Копирование... OK

Ошибок не произошло


AccurateRip: сводка

Трек 1 точное извлечение (доверие 1) [D1719A29]
Трек 2 точное извлечение (доверие 1) [2FBC513E]
Трек 3 точное извлечение (доверие 1) [6029236D]
Трек 4 точное извлечение (доверие 1) [3CD098F2]
Трек 5 точное извлечение (доверие 1) [946E49D2]
Трек 6 точное извлечение (доверие 1) [F9E6F094]
Трек 7 точное извлечение (доверие 1) [4CF41832]

Все треки извлечены точно

Конец отчёта

_________________
Fools all of us... Basketball
avatar
kelia99

Posts : 308
Join date : 2010-09-01
Age : 55

View user profile http://in-rock-lossless.moole.ru/

Back to top Go down

Re: Fromuz(Uzbekistan) - Progressive/Rock/Jazz Rock/Fusion

Post by Sponsored content


Sponsored content


Back to top Go down

View previous topic View next topic Back to top

- Similar topics

 
Permissions in this forum:
You cannot reply to topics in this forum