Tony Levin(USA) - Progressive / Jazz Rock/Fusion

View previous topic View next topic Go down

Tony Levin(USA) - Progressive / Jazz Rock/Fusion

Post by kelia99 on Sat Sep 18, 2010 1:11 am

TONY LEVIN - World Diary(1995)



Studio Album, released in 1995
Origin: USA
Genre: Progressive / Jazz Rock/Fusion
Quality: (FLAC,cue,Log,Cover,3% Recovery record)
Size: 293 Mb

Track List:

1. Chasms (5:21)
2. The Train (4:44)
3. We Stand In Sapphire Silence (5:45)
4. Smoke (0:49)
5. Etude In The Key Of Guildford (3:13)
6. Espresso and the Bed of Nails (4:46)
7. Mingled Roots (3:49)
8. Nyatiti (4:19)
9. Jewels (3:48)
10. La Tristesse Amoureuse De La Nuit (4:58)
11. Heat (6:33)
12. I Cry To The Dolphined Sea (5:41)
13. The Sound Of Goodbye (3:14)

Line-up Musicians:

- Tony Levin / Stick, bass, NS Electric Upright
- Shankar / violin & vocal
- Ayub Ogada / nyatiti & vocal
- Bendik / saxophone
- Nexus / percussion
- Brian Yamakoshi / koto
- Levon Minassian / doudouk
- Manu Katche / drums
- Jerry Marotta / drums
- Bill Bruford / electronic percussion
Log EAC:
Exact Audio Copy V0.99 prebeta 5 from 4. May 2009

Отчёт EAC об извлечении, выполненном 2. июля 2010, 20:56

Tony Levin / World Diary

Дисковод: HL-DT-STDVDRAM GSA-H66N Adapter: 3 ID: 0

Режим чтения : Достоверность
Использование точного потока : Да
Отключение кэша аудио : Да
Использование указателей C2 : Нет

Коррекция смещения при чтении : 667
Способность читать области Lead-in и Lead-out : Нет
Заполнение пропущенных сэмплов тишиной : Да
Удаление блоков с тишиной в начале и конце : Нет
При вычислениях CRC использовались нулевые сэмплы : Да
Интерфейс : Встроенный Win32-интерфейс для Win NT/2000

Выходной формат : Внутренние WAV-операции
Формат сэмплов : 44.100 Гц; 16 бит; стерео


TOC извлечённого CD

Трек | Старт | Длительность | Начальный сектор | Конечный сектор
---------------------------------------------------------------------
1 | 0:00.00 | 5:22.18 | 0 | 24167
2 | 5:22.18 | 4:44.32 | 24168 | 45499
3 | 10:06.50 | 5:45.73 | 45500 | 71447
4 | 15:52.48 | 0:49.40 | 71448 | 75162
5 | 16:42.13 | 3:13.67 | 75163 | 89704
6 | 19:56.05 | 4:46.20 | 89705 | 111174
7 | 24:42.25 | 3:49.73 | 111175 | 128422
8 | 28:32.23 | 4:19.55 | 128423 | 147902
9 | 32:52.03 | 3:48.30 | 147903 | 165032
10 | 36:40.33 | 4:58.20 | 165033 | 187402
11 | 41:38.53 | 6:33.10 | 187403 | 216887
12 | 48:11.63 | 5:41.02 | 216888 | 242464
13 | 53:52.65 | 3:14.48 | 242465 | 257062


Характеристики диапазона извлечения и сообщения об ошибках

Выбранный диапазон

Имя файла J:\Tony Levin - World Diary(1995)\Tony Levin - World Diary.wav

Пиковый уровень 100.0 %
Качество диапазона 100.0 %
CRC копии 3CED4757
Копирование... OK

Ошибок не произошло


AccurateRip: сводка

Трек 1 точность не определена (достоверность 1) [AF4AB6CC], AccurateRip вернул [25EE469C]
Трек 2 точность не определена (достоверность 1) [F4233A0B], AccurateRip вернул [97036A9B]
Трек 3 точность не определена (достоверность 1) [ECAD0E95], AccurateRip вернул [83FCBFD5]
Трек 4 точность не определена (достоверность 1) [8B07E5DD], AccurateRip вернул [0208883D]
Трек 5 точность не определена (достоверность 1) [B4E408FF], AccurateRip вернул [22747E8F]
Трек 6 точность не определена (достоверность 1) [DD996507], AccurateRip вернул [1CF82DF7]
Трек 7 точность не определена (достоверность 1) [B693DEBF], AccurateRip вернул [06E3BA5F]
Трек 8 точность не определена (достоверность 1) [72790A85], AccurateRip вернул [BB89A3E5]
Трек 9 точность не определена (достоверность 1) [372F692A], AccurateRip вернул [39AFBF0A]
Трек 10 точность не определена (достоверность 1) [24530598], AccurateRip вернул [93C1D7B8]
Трек 11 точность не определена (достоверность 1) [F0B99318], AccurateRip вернул [41CC28D5]
Трек 12 точность не определена (достоверность 1) [15AE6B48], AccurateRip вернул [2B1FC2C8]
Трек 13 точность не определена (достоверность 1) [2DA52CE9], AccurateRip вернул [50B04514]

Ни один трек не прошёл проверки на точность
В вашей базе может быть иной вариант штамповки диска

Конец отчёта


Last edited by kelia99 on Sun Oct 03, 2010 2:42 am; edited 1 time in total

_________________
Fools all of us... Basketball
avatar
kelia99

Posts : 308
Join date : 2010-09-01
Age : 56

View user profile http://in-rock-lossless.moole.ru/

Back to top Go down

Re: Tony Levin(USA) - Progressive / Jazz Rock/Fusion

Post by kelia99 on Sat Sep 18, 2010 1:13 am

Tony Levin - Waters of Eden (2000)



Origin: USA
Genre: Progressive / Jazz Rock/Fusion
Quality: (FLAC,cue,Log, Cover,3% Recovery record)
Size: 283 Mb

Track List:

1. Bone & Flesh (6:43)
2. Waters Of Eden (4:50)
3. Icarus (5:34)
4. Gecko Walk (5:01)
5. Belle (4:01)
6. Pillar Of Fire (6:42)
7. Boulevard Of Dreams (6:46)
8. Opal Road (6:22)
9. Utopia (7:58)

Total Time: 54:10

Line-up / Musicians:

- Tony Levin / cello, bass, upright bass
- Jerry Marotta / drums
- Larry Fast / synthesizers (1, 4, 6, 8, 9)
- Jeff Pevar / guitar (3, 4, 6, 8, 9)
- Steve Gorn / bansuri flute (1, 8)
- David Torn / guitar, loops, oud, and drum processing (1, 4)
- David Sancious / piano, synthesizers, and virtual soprano (2, 3)
- Pete Levin / synthesizers (5)
- Warren Bernhardt / piano (7)
- California Guitar Trio (Bert Lams, Hideyo Moriya and Paul Richards) (2)

Releases information
CD Narada (2000)
Log EAC:
Exact Audio Copy V0.99 prebeta 5 from 4. May 2009

Отчёт EAC об извлечении, выполненном 28. июня 2010, 19:35

Tony Levin / Waters of Eden

Дисковод: HL-DT-STDVDRAM GSA-H66N Adapter: 3 ID: 0

Режим чтения : Достоверность
Использование точного потока : Да
Отключение кэша аудио : Да
Использование указателей C2 : Нет

Коррекция смещения при чтении : 667
Способность читать области Lead-in и Lead-out : Нет
Заполнение пропущенных сэмплов тишиной : Да
Удаление блоков с тишиной в начале и конце : Нет
При вычислениях CRC использовались нулевые сэмплы : Да
Интерфейс : Встроенный Win32-интерфейс для Win NT/2000

Выходной формат : Внутренние WAV-операции
Формат сэмплов : 44.100 Гц; 16 бит; стерео


TOC извлечённого CD

Трек | Старт | Длительность | Начальный сектор | Конечный сектор
---------------------------------------------------------------------
1 | 0:00.00 | 6:46.60 | 0 | 30509
2 | 6:46.60 | 4:50.47 | 30510 | 52306
3 | 11:37.32 | 5:35.33 | 52307 | 77464
4 | 17:12.65 | 4:58.64 | 77465 | 99878
5 | 22:11.54 | 4:00.48 | 99879 | 117926
6 | 26:12.27 | 6:44.18 | 117927 | 148244
7 | 32:56.45 | 6:47.07 | 148245 | 178776
8 | 39:43.52 | 6:23.13 | 178777 | 207514
9 | 46:06.65 | 8:03.37 | 207515 | 243776


Характеристики диапазона извлечения и сообщения об ошибках

Выбранный диапазон

Имя файла J:\Tony Levin - Waters of Eden (2000)\Tony Levin - Waters of Eden.wav

Пиковый уровень 100.0 %
Качество диапазона 100.0 %
CRC копии 99C1DC16
Копирование... OK

Ошибок не произошло


AccurateRip: сводка

Трек 1 точность не определена (достоверность 27) [9F015D1C], AccurateRip вернул [A3057EFD]
Трек 2 точность не определена (достоверность 26) [01BB6776], AccurateRip вернул [8E6F5BE9]
Трек 3 точность не определена (достоверность 27) [794FC977], AccurateRip вернул [62666962]
Трек 4 точность не определена (достоверность 27) [1FD72015], AccurateRip вернул [95258120]
Трек 5 точность не определена (достоверность 27) [35F60FA8], AccurateRip вернул [D6DA4A49]
Трек 6 точность не определена (достоверность 27) [AF641312], AccurateRip вернул [9D287EE3]
Трек 7 точность не определена (достоверность 27) [CE0F359B], AccurateRip вернул [5AF87430]
Трек 8 точность не определена (достоверность 26) [4421A5E8], AccurateRip вернул [2AFB8EC7]
Трек 9 точность не определена (достоверность 27) [FEE36ADE], AccurateRip вернул [631FE6F1]

Ни один трек не прошёл проверки на точность
В вашей базе может быть иной вариант штамповки диска

Конец отчёта


Last edited by kelia99 on Sun Oct 03, 2010 2:43 am; edited 1 time in total

_________________
Fools all of us... Basketball
avatar
kelia99

Posts : 308
Join date : 2010-09-01
Age : 56

View user profile http://in-rock-lossless.moole.ru/

Back to top Go down

Re: Tony Levin(USA) - Progressive / Jazz Rock/Fusion

Post by kelia99 on Sat Sep 18, 2010 1:14 am

Tony Levin - Pieces of The Sun (2002)



Studio Album, released in 2002
Origin: USA
Genre: Progressive / Jazz Rock/Fusion
Quality: (FLAC,cue,Log,Cover,3% Recovery record)
Size: 444 Mb

Track List:

01. Apollo (6:49)
02. Geronimo (3:11)
03. Aquafin (5:14)
04. Dog One (5:15)
05. Tequila (5:20)
06. Pieces of the Sun (7:20)
07. Phobos (03:36)
08. Ooze (4:16)
09. Blue Nude Reclining (3:08)
10. The Fifth Man (5:47)
11. Ever the Sun will Rise (9:08)
12. Silhouette (4:37)

Total Time: 63.47

Line-up Musicians:

- Tony Levin / bass (1, 3, 5, 6, 9, 12), Stick (1, 2, 4, 7, 9-11), acoustic bass (1), NS Electric Upright bass (1), cello (6, 8, 11), Omnichord (3), guitar (8), additional acoustic guitar (3), vocals (4, 5)- Larry Fast / synthesizers (1-7, 9-12), vocals (5)
- Jesse Gress / electric guitar (all), acoustic guitar (3), vocals (4, 5)
- Jerry Marotta / drums (1-7, 9-12), Taos drum (8), percussion (5, 6), acoustic guitar (3), Omnichord (3), vocals (4, 5), saxophone (5, 9)
- The California Guitar Trio (Bert Lams, Hideyo Moriya, Paul Richards) / acoustic guitars (1)

Releases information
CD Narada Productions, Inc. Narada 72438-11626-2-0 (2002)



Last edited by kelia99 on Sun Oct 03, 2010 2:41 am; edited 1 time in total

_________________
Fools all of us... Basketball
avatar
kelia99

Posts : 308
Join date : 2010-09-01
Age : 56

View user profile http://in-rock-lossless.moole.ru/

Back to top Go down

Re: Tony Levin(USA) - Progressive / Jazz Rock/Fusion

Post by kelia99 on Sat Sep 18, 2010 1:15 am

Tony Levin - Resonator (2006)



Studio Album, released in 2006
Origin: USA
Genre: Progressive / Jazz Rock/Fusion
Quality: (FLAC,cue,Log, not Cover,3% Recovery record)
Size: 316 Mb

Track List:

1. Break it down (7:02)
2. Places to go (5:46)
3. Throw the God a bone (5:23)
4. Utopia (6:20)
5. Beyond my reach (5:16)
6. Shadowland (4:57)
7. Crisis of Faith (2:10)
8. What would Jimi do? (4:32)
9. Sabre Dance (5:05)
10. Fragile as a song (4:31)

Total Time: 51:18

Line-up / Musicians;

- Tony Levin / bass, Chapman stick, keyboards (10)
- Pete Levin / keyboards
- Jerry Marotta / drums
- Jesse Gress / guitars
- Larry Fast / keyboards

Guest musicians:

- Adrian Belew / guitar (3)
- Steve Lukather / guitar (4)

Releases information
CD Narada Records (2006)
Log EAC:
Exact Audio Copy V0.99 prebeta 5 from 4. May 2009

Отчёт EAC об извлечении, выполненном 28. июня 2010, 17:14

Tony Levin / Resonator

Дисковод: HL-DT-STDVDRAM GSA-H66N Adapter: 3 ID: 0

Режим чтения : Достоверность
Использование точного потока : Да
Отключение кэша аудио : Да
Использование указателей C2 : Нет

Коррекция смещения при чтении : 667
Способность читать области Lead-in и Lead-out : Нет
Заполнение пропущенных сэмплов тишиной : Да
Удаление блоков с тишиной в начале и конце : Нет
При вычислениях CRC использовались нулевые сэмплы : Да
Интерфейс : Встроенный Win32-интерфейс для Win NT/2000

Выходной формат : Внутренние WAV-операции
Формат сэмплов : 44.100 Гц; 16 бит; стерео


TOC извлечённого CD

Трек | Старт | Длительность | Начальный сектор | Конечный сектор
---------------------------------------------------------------------
1 | 0:00.00 | 7:02.69 | 0 | 31718
2 | 7:02.69 | 5:47.04 | 31719 | 57747
3 | 12:49.73 | 5:25.31 | 57748 | 82153
4 | 18:15.29 | 6:21.30 | 82154 | 110758
5 | 24:36.59 | 5:16.35 | 110759 | 134493
6 | 29:53.19 | 4:58.13 | 134494 | 156856
7 | 34:51.32 | 2:10.67 | 156857 | 166673
8 | 37:02.24 | 4:34.26 | 166674 | 187249
9 | 41:36.50 | 5:07.66 | 187250 | 210340
10 | 46:44.41 | 4:31.40 | 210341 | 230705


Характеристики диапазона извлечения и сообщения об ошибках

Выбранный диапазон

Имя файла J:\Tony Levin - Resonator (2006)\Tony Levin - Resonator.wav

Пиковый уровень 98.8 %
Качество диапазона 100.0 %
CRC копии 9AB5C49C
Копирование... OK

Ошибок не произошло


AccurateRip: сводка

Трек 1 точность не определена (достоверность 9) [63F3164A], AccurateRip вернул [9D71BA70]
Трек 2 точность не определена (достоверность 9) [29C58980], AccurateRip вернул [5FBF3BDC]
Трек 3 точность не определена (достоверность 9) [C1D70D87], AccurateRip вернул [8A94E6E0]
Трек 4 точность не определена (достоверность 9) [FDD6D5A3], AccurateRip вернул [FF8D510E]
Трек 5 точность не определена (достоверность 9) [D0D44068], AccurateRip вернул [5095EFD2]
Трек 6 точность не определена (достоверность 8) [B811FA0E], AccurateRip вернул [DD67FC85]
Трек 7 точность не определена (достоверность 9) [7FCCB7BF], AccurateRip вернул [7AA22CF4]
Трек 8 точность не определена (достоверность 9) [E068D94D], AccurateRip вернул [0DE9D1FC]
Трек 9 точность не определена (достоверность 9) [E5BDD040], AccurateRip вернул [41D40457]
Трек 10 точность не определена (достоверность 9) [F2926A8C], AccurateRip вернул [7607D7B2]

Ни один трек не прошёл проверки на точность
В вашей базе может быть иной вариант штамповки диска

Конец отчёта


Last edited by kelia99 on Sun Oct 03, 2010 2:59 am; edited 1 time in total

_________________
Fools all of us... Basketball
avatar
kelia99

Posts : 308
Join date : 2010-09-01
Age : 56

View user profile http://in-rock-lossless.moole.ru/

Back to top Go down

Re: Tony Levin(USA) - Progressive / Jazz Rock/Fusion

Post by kelia99 on Sat Sep 18, 2010 1:17 am

Tony Levin - Stick Man (2007)



Tony Levin is one of those few bassists that made it as household names. Throughout his work with legends such as PETER GABRIEL, KING CRIMSON, ALICE COOPER and his numerous side projects, he established himself as one of the true pioneers of the instrument. He has always pushed the melodic boundaries of his instrument.

Born on June 6, 1946, ''Papa bear'' started his musical education at the age of 10, with an upright bass. The bass was not his only instrument, as he played also tuba for his high school band. After studying at the Eastman School of Music, he tried classical music with the Rochester Philharmonic, but understood he was more into jazz and rock. The 70's were starting, and the possibilities were infinite for a musician as talented as he was.

He appeared as a studio artist with LOU REED, ALICE COOPER, JEAN-PIERRE FERLAND, and finally PETER GABRIEL with whom he still is. While with Gabriel, he also masterised another instrument that is now automatically linked to him, the Chapman Stick. The 80's were also full of projects for him, including his stint with King Crimson, with whom he would stay for about two decades.

1996 saw his first solo album, ''The world diary'', wich is still seen by critics as his best effort. Some of his side projects include B.L.U.E (Bruford Levin Upper Extremities) with fellow Crimson memeber Bill Bruford, and LIQUID TENSION EXPERIMENT with 3 current members of Dream Theater, John Petrucci, Jordan Rudess and Mike Portnoy. In the 2000's Levin released ''Waters of Eden''(2000), ''Pieces of the sun''(2001), and ''Double Expresso''(2002), all on his own label, Narada.

Origin: United States
Genre: Jazz Rock/Fusion
Quality: (FLAC,cue,Log,Cover,3% Recovery record)
Size: 370 Mb

Track List:

1. Welcome (4:12)
2. Gut String Theory (3:27)
3. Speedbump (2:46)
4. Slow Glide (4:00)
5. Shraag (4:25)
6. Not Just Another Pretty Bass (3:22)
7. El Mercado (2:27)
8. Orange Alert (2:32)
9. In Her Locket (3:56)
10. Rising Waters (3:16)
11. Metro (4:21)
12. Zeros to Disk (3:33)
13. Sticky Fingers (2:27)
14. Rivers of Light (4:24)
15. Chop Shop (2:53)
16. The Gorgon Sisters Have a Chat (2:31)
17. Dark Blues (3:39)



Total Time: 58:15



Line-up Musicians:

- Tony Levin / stick, basses, cello, vocals, and misc.
- Pat Mastelotto / drums & percussion
- Scott Schorr / keyboards, drums, percussion
- Chris Albers / guitar
- Tim Dow / drums
Log EAC:
Exact Audio Copy V0.99 prebeta 5 from 4. May 2009

Отчёт EAC об извлечении, выполненном 21. июня 2010, 11:56

Tony Levin / Stick Man

Дисковод: HL-DT-STDVDRAM GSA-H66N Adapter: 3 ID: 0

Режим чтения : Достоверность
Использование точного потока : Да
Отключение кэша аудио : Да
Использование указателей C2 : Нет

Коррекция смещения при чтении : 667
Способность читать области Lead-in и Lead-out : Нет
Заполнение пропущенных сэмплов тишиной : Да
Удаление блоков с тишиной в начале и конце : Нет
При вычислениях CRC использовались нулевые сэмплы : Да
Интерфейс : Встроенный Win32-интерфейс для Win NT/2000

Выходной формат : Внутренние WAV-операции
Формат сэмплов : 44.100 Гц; 16 бит; стерео


TOC извлечённого CD

Трек | Старт | Длительность | Начальный сектор | Конечный сектор
---------------------------------------------------------------------
1 | 0:00.00 | 3:42.47 | 0 | 16696
2 | 3:42.47 | 3:28.35 | 16697 | 32331
3 | 7:11.07 | 2:48.73 | 32332 | 45004
4 | 10:00.05 | 4:01.58 | 45005 | 63137
5 | 14:01.63 | 4:27.03 | 63138 | 83165
6 | 18:28.66 | 3:23.63 | 83166 | 98453
7 | 21:52.54 | 2:28.36 | 98454 | 109589
8 | 24:21.15 | 2:34.25 | 109590 | 121164
9 | 26:55.40 | 3:58.17 | 121165 | 139031
10 | 30:53.57 | 3:18.28 | 139032 | 153909
11 | 34:12.10 | 4:22.21 | 153910 | 173580
12 | 38:34.31 | 3:34.35 | 173581 | 189665
13 | 42:08.66 | 2:28.56 | 189666 | 200821
14 | 44:37.47 | 4:26.22 | 200822 | 220793
15 | 49:03.69 | 2:54.60 | 220794 | 233903
16 | 51:58.54 | 2:35.03 | 233904 | 245531
17 | 54:33.57 | 3:39.35 | 245532 | 261991


Характеристики диапазона извлечения и сообщения об ошибках

Выбранный диапазон

Имя файла J:\Tony Levin - Stick Man (2007)\Tony Levin - Stick Man.wav

Пиковый уровень 99.8 %
Качество диапазона 100.0 %
CRC копии BA772D95
Копирование... OK

Ошибок не произошло


AccurateRip: сводка

Трек 1 точное извлечение (доверие 5) [13BC4DC0]
Трек 2 точное извлечение (доверие 5) [B437D775]
Трек 3 точное извлечение (доверие 5) [2D4CD138]
Трек 4 точное извлечение (доверие 5) [AF6E13AE]
Трек 5 точное извлечение (доверие 5) [C7B206E3]
Трек 6 точное извлечение (доверие 5) [54507FF1]
Трек 7 точное извлечение (доверие 5) [4C3D8243]
Трек 8 точное извлечение (доверие 5) [533A9773]
Трек 9 точное извлечение (доверие 5) [20752470]
Трек 10 точное извлечение (доверие 5) [8B1A5225]
Трек 11 точное извлечение (доверие 5) [0DBDB2FA]
Трек 12 точное извлечение (доверие 5) [8F02BB67]
Трек 13 точное извлечение (доверие 5) [AC4CB799]
Трек 14 точное извлечение (доверие 5) [081EF339]
Трек 15 точное извлечение (доверие 5) [6DF169DF]
Трек 16 точное извлечение (доверие 5) [619A1732]
Трек 17 точное извлечение (доверие 5) [F23BC982]

Все треки извлечены точно

Конец отчёта

_________________
Fools all of us... Basketball
avatar
kelia99

Posts : 308
Join date : 2010-09-01
Age : 56

View user profile http://in-rock-lossless.moole.ru/

Back to top Go down

Re: Tony Levin(USA) - Progressive / Jazz Rock/Fusion

Post by Sponsored content


Sponsored content


Back to top Go down

View previous topic View next topic Back to top

- Similar topics

 
Permissions in this forum:
You cannot reply to topics in this forum