Univers Zero(Belgium) - RIO/Avant-Prog

View previous topic View next topic Go down

Univers Zero(Belgium) - RIO/Avant-Prog

Post by kelia99 on Thu Sep 16, 2010 11:48 pm

Univers Zero - Relaps Archives 1984-1986 (2009)



Origin: Belgium
Genre: RIO/Avant-Prog
Quality: (FLAC,cue,Log, cover,3% Recovery record)
Size: 472 Mb

Track List:

1. L'Etrange Mixture du Docteur Schwartz
2. Presage
3. Parade
4. Ligne Claire
5. Emanations
6. Heatwave
7. The Funeral Plain
8. L'Etrange Mixture du Docteur Schwartz (free-style version)





Line-up Musicians:

Michel Delory - guitar (5, 6, 7, 8)
Daniel Denis - drums
Dirck Descheemaeker - soprano sax, clarinet, bass clarinet
Christian Genet - bass
Patrick Hanappier - violin, viola (5, 6, 7, 8)
Andy Kirk - keyboards (5, 6, 7, 8)
André Mergen - cello, alto sax, voice (1, 2, 3, 4)
Jean-Luc Plouvier - keyboards

Releases information :
Released on Cuneiform Records

1, 2 and 3 - Recorded in March 31, 1984 at The Pavillon, Hannover, Germany
4 - Recorded in February 25, 1984 at Dottignies, Belgium
5 - Recorded in February 17, 1986 at Frankfurt Jazz Festival, Frankfurt, Germany
6, 7 and 8 - Recorded in October 9, 1985 at Centre Culturel de Seraing, Seraing, Belgium
Log EAC:
Exact Audio Copy V0.99 prebeta 5 from 4. May 2009

Отчёт EAC об извлечении, выполненном 22. июня 2010, 18:51

Univerd Zero / Relaps (Archives 1984-1986)

Дисковод: HL-DT-STDVDRAM GSA-H66N Adapter: 3 ID: 0

Режим чтения : Достоверность
Использование точного потока : Да
Отключение кэша аудио : Да
Использование указателей C2 : Нет

Коррекция смещения при чтении : 667
Способность читать области Lead-in и Lead-out : Нет
Заполнение пропущенных сэмплов тишиной : Да
Удаление блоков с тишиной в начале и конце : Нет
При вычислениях CRC использовались нулевые сэмплы : Да
Интерфейс : Встроенный Win32-интерфейс для Win NT/2000

Выходной формат : Внутренние WAV-операции
Формат сэмплов : 44.100 Гц; 16 бит; стерео


TOC извлечённого CD

Трек | Старт | Длительность | Начальный сектор | Конечный сектор
---------------------------------------------------------------------
1 | 0:00.00 | 4:03.42 | 0 | 18266
2 | 4:03.42 | 10:06.42 | 18267 | 63758
3 | 14:10.09 | 8:13.30 | 63759 | 100763
4 | 22:23.39 | 3:48.23 | 100764 | 117886
5 | 26:11.62 | 12:26.12 | 117887 | 173848
6 | 38:37.74 | 8:41.61 | 173849 | 212984
7 | 47:19.60 | 18:07.55 | 212985 | 294564
8 | 65:27.40 | 4:44.62 | 294565 | 315926


Характеристики диапазона извлечения и сообщения об ошибках

Выбранный диапазон

Имя файла J:\Univers Zero - Relaps Archives 1984-1986 (2009)\Univerd Zero - Relaps (Archives 1984-1986).wav

Пиковый уровень 96.6 %
Качество диапазона 100.0 %
CRC копии EE19660A
Копирование... OK

Ошибок не произошло


AccurateRip: сводка

Трек 1 нет в базе данных
Трек 2 нет в базе данных
Трек 3 нет в базе данных
Трек 4 нет в базе данных
Трек 5 нет в базе данных
Трек 6 нет в базе данных
Трек 7 нет в базе данных
Трек 8 нет в базе данных

Ни одного трека нет в базе AccurateRip

Конец отчёта


Last edited by kelia99 on Sun Oct 03, 2010 2:28 am; edited 1 time in total

_________________
Fools all of us... Basketball
avatar
kelia99

Posts : 308
Join date : 2010-09-01
Age : 56

View user profile http://in-rock-lossless.moole.ru/

Back to top Go down

Univers Zero - Heatwave (1987)

Post by kelia99 on Thu Sep 16, 2010 11:51 pm

Univers Zero - Heatwave (1987)




Origin: Belgium
Genre: RIO/Avant-Prog
Quality: (FLAC,cue,Log,Cover,3% Recovery record)
Size: 244 Mb

Track List:

1. Heatwave (8:34)
2. Chinavox (4:49)
3. Bruit dans les murs (8:25)
4. The Funeral Plain (20:24)



Total Time: 42;20



Line-up Musicians:

- Michel Delory / guitar
- Daniel Denis / drums, percussion, voice
- Dirk Descheemaeker / clarinet, bass clarinet, soprano sax
- Christian Genet / bass, nailskake
- Patrick Hanappier / violin, viola
- Andy Kirk / piano, synthesizer, voice
- Jean-Luc Plouvier / piano, synthesizer, voice
Log EAC:
Exact Audio Copy V0.99 prebeta 5 from 4. May 2009

Отчёт EAC об извлечении, выполненном 21. июня 2010, 13:13

Univers Zero / Heatwave

Дисковод: HL-DT-STDVDRAM GSA-H66N Adapter: 3 ID: 0

Режим чтения : Достоверность
Использование точного потока : Да
Отключение кэша аудио : Да
Использование указателей C2 : Нет

Коррекция смещения при чтении : 667
Способность читать области Lead-in и Lead-out : Нет
Заполнение пропущенных сэмплов тишиной : Да
Удаление блоков с тишиной в начале и конце : Нет
При вычислениях CRC использовались нулевые сэмплы : Да
Интерфейс : Встроенный Win32-интерфейс для Win NT/2000

Выходной формат : Внутренние WAV-операции
Формат сэмплов : 44.100 Гц; 16 бит; стерео


TOC извлечённого CD

Трек | Старт | Длительность | Начальный сектор | Конечный сектор
---------------------------------------------------------------------
1 | 0:00.00 | 8:37.25 | 0 | 38799
2 | 8:37.25 | 4:53.20 | 38800 | 60794
3 | 13:30.45 | 8:27.18 | 60795 | 98837
4 | 21:57.63 | 20:22.62 | 98838 | 190549


Характеристики диапазона извлечения и сообщения об ошибках

Выбранный диапазон

Имя файла J:\Univers Zero - Heatwave (1987)\Univers Zero - Heatwave.wav

Пиковый уровень 100.0 %
Качество диапазона 100.0 %
CRC копии C6585004
Копирование... OK

Ошибок не произошло


AccurateRip: сводка

Трек 1 точность не определена (достоверность 4) [BA681F97], AccurateRip вернул [FFC4E7A6]
Трек 2 точность не определена (достоверность 4) [C35BE205], AccurateRip вернул [0E3DC2C4]
Трек 3 точность не определена (достоверность 4) [39C8C434], AccurateRip вернул [7ACC49EF]
Трек 4 точность не определена (достоверность 4) [90B6D074], AccurateRip вернул [ACCE46AE]

Ни один трек не прошёл проверки на точность
В вашей базе может быть иной вариант штамповки диска

Конец отчёта


Last edited by kelia99 on Sun Oct 03, 2010 2:28 am; edited 1 time in total

_________________
Fools all of us... Basketball
avatar
kelia99

Posts : 308
Join date : 2010-09-01
Age : 56

View user profile http://in-rock-lossless.moole.ru/

Back to top Go down

Univers Zero - The Hard Quest (1999)

Post by kelia99 on Thu Sep 16, 2010 11:55 pm

Univers Zero - The Hard Quest (1999)



Origin: Belgium
Genre: RIO/Avant-Prog
Quality: (FLAC,cue,Log,Front cover,3% Recovery record)
Size: 301 Mb

Track List:

1. Vieux-Manants (2:50)
2. Civic Circus (4:38)
3. Affinité (5:52)
4. Rouages (5:50)
5. News From Outside (3:24)
6. Rébus (2:46)
7. Kermesse Atomique (5:33)
8. Succès Damné (4:18)
9. L'Impasse du Choléra (1:48)
10. Xenantaya (10:34)
11. L'Oubli (1:46)

Total Time: 54:04

Line-up Musicians:

- Michel Berckmans / bassoon, oboe, English horn, melodica, piano
- Daniel Denis / drums, keyboards, percussion, melodica, voice
- Dirk Descheemaeker / clarinet, bass clarinet
- Igor Semenoff / violin
- Reginald Trigaux / electric bass, voice, acoustic guitar



_________________
Fools all of us... Basketball
avatar
kelia99

Posts : 308
Join date : 2010-09-01
Age : 56

View user profile http://in-rock-lossless.moole.ru/

Back to top Go down

Re: Univers Zero(Belgium) - RIO/Avant-Prog

Post by kelia99 on Sat Oct 16, 2010 1:29 am

Univers Zero - Uzed (1984)



Origin: Belgium
Genre: RIO/Avant-Prog
Quality: (FLAC,cue,Log,Front cover,3% Recovery record)
Size: 266 Mb
Source: my CD-R collection

Track List:

1. Présage (9:48)
2. L'Etrange Mixture du Docteur Schwartz (3:52)
3. Célesta (for Chantal) (6:55)
4. Parade (6:37)
5. Emmanations (15:43)

Total Time: 43:04





Line-up / Musicians :

- Daniel Denis / drums, percussion, synthesizer
- Dirk Descheemaeker / soprano sax, clarinet, bass clarinet
- Christian Genet / bass, balafon, bowed guitar, tapes, whistle
- Andre Mergen / cello, alto sax, voice
- Jean-Luc Plouvier / electric & acoustic pianos, synthesizer, piano strings, percussion

Log EAC:
Exact Audio Copy V0.99 prebeta 5 from 4. May 2009

EAC extraction logfile from 15. October 2010, 17:37

Univers Zero / Uzed

Used drive : HL-DT-STDVDRAM GH22NS50 Adapter: 3 ID: 0

Read mode : Secure
Utilize accurate stream : Yes
Defeat audio cache : Yes
Make use of C2 pointers : No

Read offset correction : 667
Overread into Lead-In and Lead-Out : No
Fill up missing offset samples with silence : Yes
Delete leading and trailing silent blocks : No
Null samples used in CRC calculations : Yes
Used interface : Native Win32 interface for Win NT & 2000

Used output format : Internal WAV Routines
Sample format : 44.100 Hz; 16 Bit; Stereo


TOC of the extracted CD

Track | Start | Length | Start sector | End sector
---------------------------------------------------------
1 | 0:00.00 | 9:52.35 | 0 | 44434
2 | 9:52.35 | 3:56.27 | 44435 | 62161
3 | 13:48.62 | 6:55.08 | 62162 | 93294
4 | 20:43.70 | 6:38.67 | 93295 | 123211
5 | 27:22.62 | 15:41.63 | 123212 | 193849


Range status and errors

Selected range

Filename E:\Univers Zero - Uzed\Univers Zero - Uzed.wav

Peak level 98.0 %
Range quality 100.0 %
Copy CRC 2181867C
Copy OK

No errors occurred


AccurateRip summary

Track 1 cannot be verified as accurate (confidence 5) [25C174F2], AccurateRip returned [A25A0E1C]
Track 2 cannot be verified as accurate (confidence 6) [929FCC9E], AccurateRip returned [97C51430]
Track 3 cannot be verified as accurate (confidence 6) [1538F88D], AccurateRip returned [8C7DBCFF]
Track 4 cannot be verified as accurate (confidence 6) [A597A8B6], AccurateRip returned [1D1793EA]
Track 5 cannot be verified as accurate (confidence 5) [224ECBBD], AccurateRip returned [759E199F]

No tracks could be verified as accurate
You may have a different pressing from the one(s) in the database

End of status report


_________________
Fools all of us... Basketball
avatar
kelia99

Posts : 308
Join date : 2010-09-01
Age : 56

View user profile http://in-rock-lossless.moole.ru/

Back to top Go down

Re: Univers Zero(Belgium) - RIO/Avant-Prog

Post by atlan on Sat Oct 16, 2010 2:35 pm

Very interesting, thank you !

atlan

Posts : 56
Join date : 2010-09-08

View user profile

Back to top Go down

Re: Univers Zero(Belgium) - RIO/Avant-Prog

Post by Sponsored content


Sponsored content


Back to top Go down

View previous topic View next topic Back to top

- Similar topics

 
Permissions in this forum:
You cannot reply to topics in this forum