Neo-Prophet(Belgium) - Monsters (2009)

View previous topic View next topic Go down

Neo-Prophet(Belgium) - Monsters (2009)

Post by kelia99 on Thu Sep 16, 2010 4:38 pm

Neo-Prophet - Monsters (2009)



Origin: Belgium
Genre: Neo-Prog
Quality: (FLAC,cue,Log,not cover,3% Recovery record)
Size: 449 Mb
Source: my CD-R collection

Neo-Prophet biography
NEO-PROPHET is a Neo-Prog band hailing from Southwest Belgium. Formed in 2005 by bassist/vocalist Hans Six, keyboardist Sjoerd Bruyneel, drummer Rudi Lins and guitarist Frank Debruyne. All four had been in previous bands and all had explored a wide variety of genres. Sjoerd and Hans had played together in the band Marsta Blasta, but when the two left that band, Sjoerd wanted to move in a heavy progressive/neo progressive direction and convinced Hans to join him in this endeavor.

Taking inspiration from bands such as PINK FLOYD, MARILLION, RUSH and GENESIS, the band recorded and released its first recording, a four-song EP titled "The Feeblemindedness of the Inept and the Ignorant" in 2006. Following on from this, NEO-PROPHET began recording their first full-length CD "Monsters" in 2006 and 2007. However, before releasing the CD, the band wanted to rerecord the CD with more professional production. The CD finally saw release in February of 2009. Following the release, drummer Rudi Lins left the band due to musical differences and was replaced by Wes Jacques.

On September 4, 2009, the band played its first concert in support of "Monsters" and the first live gig to feature the new drummer. They plan to perform at Symforce III and make other appearances all over Europe in support of their CD.

Track List:

1. The Truth (4:07)
2. The Vast Machine (3:43)
3. (March of the) Boneless (7:19)
4. The Blessed One (6:19)
5. Man Without A Name (5:07)
6. Song X (9:15)
7. 911 Pianoid (5:50)
8. The New Prophet (20:42)
a. The New Prophet 6:23
b. Monsters 3:41
c. A Lonely One 3:29
d. Revelations (Instrumental) 1:49
e. The Pilgrimage 1:34
f. My Stone Of Life 3:46

Total Time: 62:22

Line-up Musicians:

- Hans 'Mac' / six lead & backing vocals, bass
- Rudi Lins / drums & percussion
- Frank Debruyne / electric & acoustic guitars
- Sjoerd 'CAP' Bruyneel / keyboards & backing vocals

Guest musicians:
- Frank Van Bogaert / string arrangements, Taurus pedal, percussions & additional noises and samples
- Dani Caen / lead & backing vocals
- Bjorn Verschoore / saxophone (5)

Releases information
CD Just For Kicks (2009)
Log EAC:
Exact Audio Copy V0.99 prebeta 5 from 4. May 2009

Отчёт EAC об извлечении, выполненном 8. июля 2010, 13:21

Neo-Prophet / Monsters

Дисковод: HL-DT-STDVDRAM GSA-H66N Adapter: 3 ID: 0

Режим чтения : Достоверность
Использование точного потока : Да
Отключение кэша аудио : Да
Использование указателей C2 : Нет

Коррекция смещения при чтении : 667
Способность читать области Lead-in и Lead-out : Нет
Заполнение пропущенных сэмплов тишиной : Да
Удаление блоков с тишиной в начале и конце : Нет
При вычислениях CRC использовались нулевые сэмплы : Да
Интерфейс : Встроенный Win32-интерфейс для Win NT/2000

Выходной формат : Внутренние WAV-операции
Формат сэмплов : 44.100 Гц; 16 бит; стерео


TOC извлечённого CD

Трек | Старт | Длительность | Начальный сектор | Конечный сектор
---------------------------------------------------------------------
1 | 0:00.00 | 4:06.64 | 0 | 18513
2 | 4:06.64 | 3:42.38 | 18514 | 35201
3 | 7:49.27 | 7:19.25 | 35202 | 68151
4 | 15:08.52 | 6:19.15 | 68152 | 96591
5 | 21:27.67 | 5:07.05 | 96592 | 119621
6 | 26:34.72 | 9:15.05 | 119622 | 161251
7 | 35:50.02 | 5:50.29 | 161252 | 187530
8 | 41:40.31 | 6:22.66 | 187531 | 216246
9 | 48:03.22 | 3:40.41 | 216247 | 232787
10 | 51:43.63 | 3:29.32 | 232788 | 248494
11 | 55:13.20 | 1:49.10 | 248495 | 256679
12 | 57:02.30 | 1:33.61 | 256680 | 263715
13 | 58:36.16 | 3:46.24 | 263716 | 280689


Характеристики диапазона извлечения и сообщения об ошибках

Выбранный диапазон

Имя файла J:\Neo-Prophet - Monsters (2009)\Neo-Prophet - Monsters.wav

Пиковый уровень 99.9 %
Качество диапазона 100.0 %
CRC копии 96A88C94
Копирование... OK

Ошибок не произошло


AccurateRip: сводка

Трек 1 нет в базе данных
Трек 2 нет в базе данных
Трек 3 нет в базе данных
Трек 4 нет в базе данных
Трек 5 нет в базе данных
Трек 6 нет в базе данных
Трек 7 нет в базе данных
Трек 8 нет в базе данных
Трек 9 нет в базе данных
Трек 10 нет в базе данных
Трек 11 нет в базе данных
Трек 12 нет в базе данных
Трек 13 нет в базе данных

Ни одного трека нет в базе AccurateRip

Конец отчёта


Last edited by kelia99 on Sun Oct 03, 2010 4:31 am; edited 1 time in total

_________________
Fools all of us... Basketball
avatar
kelia99

Posts : 308
Join date : 2010-09-01
Age : 55

View user profile http://in-rock-lossless.moole.ru/

Back to top Go down

Re: Neo-Prophet(Belgium) - Monsters (2009)

Post by fanemo on Thu Sep 16, 2010 4:41 pm

Свидетельствую: выдающийся альбом с красивыми клавишными проходами.
avatar
fanemo

Posts : 34
Join date : 2010-09-01
Age : 54
Location : Одинцово

View user profile

Back to top Go down

Re: Neo-Prophet(Belgium) - Monsters (2009)

Post by ab3000 on Thu Sep 16, 2010 5:48 pm

fanemo wrote:Свидетельствую: выдающийся альбом с красивыми клавишными проходами.
+1. Точно сказано!

ab3000

Posts : 132
Join date : 2010-09-01
Age : 48
Location : Москва

View user profile

Back to top Go down

Re: Neo-Prophet(Belgium) - Monsters (2009)

Post by andre88 on Thu Sep 16, 2010 7:11 pm

Srong Album!Thanks
avatar
andre88

Posts : 82
Join date : 2010-09-02
Age : 58
Location : Hannover

View user profile

Back to top Go down

Re: Neo-Prophet(Belgium) - Monsters (2009)

Post by Sponsored content


Sponsored content


Back to top Go down

View previous topic View next topic Back to top

- Similar topics

 
Permissions in this forum:
You cannot reply to topics in this forum