Jaco Pastorius - Live in Italy (1986)

View previous topic View next topic Go down

Jaco Pastorius - Live in Italy (1986)

Post by Musicgate on Sat Sep 04, 2010 12:19 pm



Recording Date: March 1986, Italy
Release Date: Mar 1986
Label: Jazzpoint
This CD: Russian edition
Remaster: Remastered by Sound Studio "N", Germany
Styles: Fusion
Source: Render's collection
What a Face
Type: Live albume
Ripped by: Musicgate

About albume:

Thom Jurek (AMG)
Recorded during a late tour of Europe, Live in Italy features a trio comprised of Pastorius, guitarist Bireli Lagrene, and drummer Tomas Böröcz. This was the last band that Pastorius played with regularly. In terms of the pure electricity of ideas and fluidity of movement from one phase of a tune to the next, from improvisation to arranged chart, this band was the equal of the trio the artist played in with Pat Metheny and Bob Moses. But this band has a way different vibe: this is a rock band that plays jazz. Lagrene is an improviser who is as versed in heavy metal and the blues as he is in the licks of Charlie Byrd and Wes Montgomery -- as evidenced in the opening "Improvisation #1," which gives way seamlessly to "Teen Town." Lagrene moves from Steve Vai/Eddie Van Halen hammer-ons to riffing from Deep Purple's "Smoke on the Water" to playing augmented jazz riff chords worthy of both Montgomery and Jim Hall. The ensuing improvisation and "Teen Town," riff moves Pastorius and Lagrene in to counterpoint with each other and Böröcz playing in between Jaco's accents. The funk groove is deep and wide, and the flow of ideas is fast and furious. On the band's cover of "I Shot the Sheriff," Pastorius leads the melodic line while playing the bassline simultaneously to introduce the cut before Lagrene slips in behind Böröcz to vamp the lyric line extemporaneously and soulfully. Again, the funk simpatico between the Pastorius/Böröcz team is greasy and phat. The wide variety of styles these cats play -- often in a single cut -- is stunning. After the Marley jam comes a gorgeous improv by Pastorius, which leads into Buster Brown's "Fannie Mae," which has Lagrene voicing from Albert and Freddie King, as well as J.B. Lenior. The set ends with a killer, out-for-blood read of "Black Market" and an elegantly soulful, wistfully lyrical take on the Ellington/Mercer/Strayhorn classic "Satin Doll." Both soloists create a deeply moving emotional tapestry in a gentle swing and bluesy vamp in their respective breaks. Of the live postmortem sets out there by this artist, this is only one of two -- the other is Heavy 'n Jazz, also on Jazzpoint -- that has the recorded sound to match the performance.

Tracks info:
Personel info:



What a Face
avatar
Musicgate
Аксакал
Аксакал

Posts : 1018
Join date : 2010-09-01

View user profile

Back to top Go down

Jaco Pastorius - Another Side Of Jaco Pastorius (2001) {Jazz Point}

Post by Musicgate on Mon Oct 18, 2010 2:17 pm



Жанр: Fusion
Дата выпуска: 2001
Производитель диска, страна: Jazzpoint Records, Germany, jp 1064
remastered: by Hansjoerg Widmer, Unterhofstudio
Тип: Compilation, bootleg

Продолжительность: 64.59
Источник: Моя коллекция
Риппер: Musicgate

Трэклист:
l. FANNIE MAE (Buster Brown, Clarence Lewis, Morgan Robinson) - 7:32
2. HONESTLY PART 2 (Jaco Pastorius) - з:55
з. CHICKEN (Pee Wee Ellis) - 5:51
4. JACO REGGAE (Jan Jankeje) - 6:02
5. REZA (Jaco Pastorius) - 5:3
6. THE DAYS OF WINE AND ROSES (Henry Mancini, Johnny Mercer) - 6:26
7. INVITATION (Bronislaw Kaper) - 7:53
8. STUTTGART 2 (Bireli Lagrene, Jaco Pastorius, Vladislav Sendecki, Jan Jankeje) - 10:08
9. TERESA (Jaco Pastorius) - 8:55
10. CONTINUUM (Jaco Pastorius) - 1:56

Tracks 1 & 10 from LIVE IN ITALY,
track 2 from HONESTLY,
track 3 from BROADWAY BLUES,
tracks 4, 6, 8 & 9 from STUTTGART ARIA,
tracks 5 & 7 from HEAVY'N JAZZ.
Compiled by PINETREE K.

Состав:
JACO PASTORIUS - el.bass
BIRELI LAGRENE - el.gitar
VLADISLAV SENDECKI - keyb.,synt.
JAN JANKEJE - synt.bass
THOMAS ВОЕ ROE CZ - drums
PETER LUEBKE - drums
SERGE BRINGOLF - drums, perc

"EAC log":

Аудио кодек: FLAC
Тип рипа: (tracks + .cue)
Битрейт аудио: lossless

[pre]Exact Audio Copy V0.99 prebeta 4 from 23. January 2008

EAC extraction logfile from 20. October 2008, 12:09

Jaco Pastorius / Another Side Of Jaco Pastorius

Used drive : PIONEER DVD-RW DVR-112D Adapter: 0 ID: 0

Read mode : Secure
Utilize accurate stream : Yes
Defeat audio cache : Yes
Make use of C2 pointers : No

Read offset correction : 48
Overread into Lead-In and Lead-Out : No
Fill up missing offset samples with silence : Yes
Delete leading and trailing silent blocks : No
Null samples used in CRC calculations : Yes
Used interface : Installed external ASPI interface
Gap handling : Appended to previous track

Used output format : User Defined Encoder
Selected bitrate : 320 kBit/s
Quality : High
Add ID3 tag : Yes
Command line compressor : C:\Program Files\Exact Audio Copy\Flac\flac.exe
Additional command line options : -V -8 -T "artist=%a" -T "title=%t" -T "album=%g" -T "date=%y" -T "tracknumber=%n" -T "genre=%m" %s

TOC of the extracted CD

Track | Start | Length | Start sector | End sector
---------------------------------------------------------
1 | 0:00.00 | 7:36.66 | 0 | 34265
2 | 7:36.66 | 3:59.36 | 34266 | 52226
3 | 11:36.27 | 5:51.45 | 52227 | 78596
4 | 17:27.72 | 6:02.01 | 78597 | 105747
5 | 23:29.73 | 5:39.25 | 105748 | 131197
6 | 29:09.23 | 6:29.14 | 131198 | 160386
7 | 35:38.37 | 7:53.66 | 160387 | 195927
8 | 43:32.28 | 10:08.00 | 195928 | 241527
9 | 53:40.28 | 8:55.00 | 241528 | 281652
10 | 62:35.28 | 1:56.68 | 281653 | 290420

Track 1

Filename D:\music\rip\Jaco Pastorius - Another Side Of Jaco Pastorius (2001) {Jazz Point}\01 - Fannie Mae.wav

Pre-gap length 0:00:02.00

Peak level 91.5 %
Track quality 100.0 %
Test CRC 263F03EA
Copy CRC 263F03EA
Accurately ripped (confidence 2) [7BD3D21B]
Copy OK

Track 2

Filename D:\music\rip\Jaco Pastorius - Another Side Of Jaco Pastorius (2001) {Jazz Point}\02 - Honestly Part 2.wav

Pre-gap length 0:00:04.00

Peak level 98.7 %
Track quality 100.0 %
Test CRC 5669AD0B
Copy CRC 5669AD0B
Accurately ripped (confidence 2) [7A9F57FA]
Copy OK

Track 3

Filename D:\music\rip\Jaco Pastorius - Another Side Of Jaco Pastorius (2001) {Jazz Point}\03 - Chicken.wav

Pre-gap length 0:00:04.00

Peak level 99.7 %
Track quality 100.0 %
Test CRC 5703AA9D
Copy CRC 5703AA9D
Accurately ripped (confidence 2) [967D5B10]
Copy OK

Track 4

Filename D:\music\rip\Jaco Pastorius - Another Side Of Jaco Pastorius (2001) {Jazz Point}\04 - Jaco Reggae.wav

Peak level 97.1 %
Track quality 100.0 %
Test CRC 6D2B6635
Copy CRC 6D2B6635
Accurately ripped (confidence 2) [B8BEA6EB]
Copy OK

Track 5

Filename D:\music\rip\Jaco Pastorius - Another Side Of Jaco Pastorius (2001) {Jazz Point}\05 - Reza.wav

Peak level 74.8 %
Track quality 100.0 %
Test CRC FAB5D6F0
Copy CRC FAB5D6F0
Accurately ripped (confidence 2) [08BA9296]
Copy OK

Track 6

Filename D:\music\rip\Jaco Pastorius - Another Side Of Jaco Pastorius (2001) {Jazz Point}\06 - The days of wine and roses.wav

Peak level 98.7 %
Track quality 99.9 %
Test CRC 25640554
Copy CRC 25640554
Accurately ripped (confidence 2) [F09B749E]
Copy OK

Track 7

Filename D:\music\rip\Jaco Pastorius - Another Side Of Jaco Pastorius (2001) {Jazz Point}\07 - Invitation.wav

Pre-gap length 0:00:03.00

Peak level 97.6 %
Track quality 99.9 %
Test CRC F4CBCC7C
Copy CRC F4CBCC7C
Accurately ripped (confidence 2) [2930BD47]
Copy OK

Track 8

Filename D:\music\rip\Jaco Pastorius - Another Side Of Jaco Pastorius (2001) {Jazz Point}\08 - Stuttgart 2.wav

Peak level 100.0 %
Track quality 99.9 %
Test CRC EF6B611D
Copy CRC EF6B611D
Accurately ripped (confidence 2) [901F33C3]
Copy OK

Track 9

Filename D:\music\rip\Jaco Pastorius - Another Side Of Jaco Pastorius (2001) {Jazz Point}\09 - Teresa.wav

Peak level 65.3 %
Track quality 100.0 %
Test CRC DEBEFE99
Copy CRC DEBEFE99
Accurately ripped (confidence 2) [77B772FF]
Copy OK

Track 10

Filename D:\music\rip\Jaco Pastorius - Another Side Of Jaco Pastorius (2001) {Jazz Point}\10 - Continuum.wav

Peak level 98.7 %
Track quality 99.9 %
Test CRC B98FDB44
Copy CRC B98FDB44
Accurately ripped (confidence 2) [763D16F9]
Copy OK

All tracks accurately ripped

No errors occurred

End of status report
[/pre]
avatar
Musicgate
Аксакал
Аксакал

Posts : 1018
Join date : 2010-09-01

View user profile

Back to top Go down

View previous topic View next topic Back to top

- Similar topics

 
Permissions in this forum:
You cannot reply to topics in this forum