Scott Henderson and Tribal Tech

View previous topic View next topic Go down

Scott Henderson and Tribal Tech

Post by Musicgate on Mon Oct 18, 2010 3:42 pm

Scott Henderson and Tribal Tech - Tribal Tech



Жанр: fusion
Записано: Nov 19, 1986
Выпущено: 1991
Фирма: Relativity 468280 2
Год выпуска: 1991

Трэклист:
SIGNAL PATH
BIG GIRL BLUES
DENSE DANCE
GOT TUH B
PERU
ELVIS AT THE HOP
THE NECESSARY BLONDE
FIGHT THE GIANT
SUB AQUA
FORMULA ONE
WASTELAND

Состав:
Scott Henderson: Guitar, Guitar Synthesizer
Gary Willis: Bass, Synthesizers
David Goldblatt: Keyboards
Joey Heredia: Drums
Brad Dutz: Percussion

Spoiler:

Формат: FLAC (tracks)
Включает: FLACS, LOG, CUE, TAU - 409 mb
Сканы:Все страницы, вкладыши и диск. 300dpi, png
Source: Моя коллекция


EAC extraction logfile from 16. May 2008, 7:05 for CD
Scott Henderson and Tribal Tech / Tribal Tech

Used drive : PIONEER DVD-RW DVR-112D Adapter: 0 ID: 0
Read mode : Secure with NO C2, accurate stream, disable cache
Read offset correction : 48
Overread into Lead-In and Lead-Out : No

Used output format : C:\Program Files\FLAC\flac.exe (User Defined Encoder)
320 kBit/s
Additional command line options : -8 -V -T "ARTIST=%a" -T "TITLE=%t" -T "ALBUM=%g" -T "DATE=%y" -T "TRACKNUMBER=%n" -T "GENRE=%m" -T "COMMENT=EAC FLAC -8" %s

Other options :
Fill up missing offset samples with silence : Yes
Delete leading and trailing silent blocks : No
Installed external ASPI interface

Track 1
Filename D:\music\rip\Scott Henderson and Tribal Tech - Tribal Tech (1991) [FLAC]\01 - Signal Path.wav

Pre-gap length 0:00:02.66

Peak level 99.9 %
Track quality 100.0 %
Test CRC 780234AD
Copy CRC 780234AD
Copy OK

Track 2
Filename D:\music\rip\Scott Henderson and Tribal Tech - Tribal Tech (1991) [FLAC]\02 - Big Girl Blues.wav

Pre-gap length 0:00:03.30

Peak level 100.0 %
Track quality 100.0 %
Test CRC 56B29A0D
Copy CRC 56B29A0D
Copy OK

Track 3
Filename D:\music\rip\Scott Henderson and Tribal Tech - Tribal Tech (1991) [FLAC]\03 - Dense Dance.wav

Pre-gap length 0:00:01.57

Peak level 95.3 %
Track quality 99.9 %
Test CRC BF75B918
Copy CRC BF75B918
Copy OK

Track 4
Filename D:\music\rip\Scott Henderson and Tribal Tech - Tribal Tech (1991) [FLAC]\04 - Got Tuh B.wav

Peak level 90.5 %
Track quality 100.0 %
Test CRC 79F977A9
Copy CRC 79F977A9
Copy OK

Track 5
Filename D:\music\rip\Scott Henderson and Tribal Tech - Tribal Tech (1991) [FLAC]\05 - Peru.wav

Pre-gap length 0:00:03.82

Peak level 100.0 %
Track quality 100.0 %
Test CRC 61E4AF30
Copy CRC 61E4AF30
Copy OK

Track 6
Filename D:\music\rip\Scott Henderson and Tribal Tech - Tribal Tech (1991) [FLAC]\06 - Elvis At The Hop.wav

Pre-gap length 0:00:03.42

Peak level 99.9 %
Track quality 100.0 %
Test CRC EFF18412
Copy CRC EFF18412
Copy OK

Track 7
Filename D:\music\rip\Scott Henderson and Tribal Tech - Tribal Tech (1991) [FLAC]\07 - The Necessary Blonde.wav

Pre-gap length 0:00:02.80

Peak level 100.0 %
Track quality 99.9 %
Test CRC 23EF6416
Copy CRC 23EF6416
Copy OK

Track 8
Filename D:\music\rip\Scott Henderson and Tribal Tech - Tribal Tech (1991) [FLAC]\08 - Fight The Giant.wav

Pre-gap length 0:00:02.70

Peak level 99.9 %
Track quality 100.0 %
Test CRC 17BA53E1
Copy CRC 17BA53E1
Copy OK

Track 9
Filename D:\music\rip\Scott Henderson and Tribal Tech - Tribal Tech (1991) [FLAC]\09 - Sub Aqua.wav

Pre-gap length 0:00:02.46

Peak level 95.5 %
Track quality 100.0 %
Test CRC 99B77EE1
Copy CRC 99B77EE1
Copy OK

Track 10
Filename D:\music\rip\Scott Henderson and Tribal Tech - Tribal Tech (1991) [FLAC]\10 - Formula One.wav

Pre-gap length 0:00:05.26

Peak level 82.7 %
Track quality 100.0 %
Test CRC 523EE458
Copy CRC 523EE458
Copy OK

Track 11
Filename D:\music\rip\Scott Henderson and Tribal Tech - Tribal Tech (1991) [FLAC]\11 - Wasteland.wav

Pre-gap length 0:00:02.60

Peak level 96.8 %
Track quality 100.0 %
Test CRC 0F12592C
Copy CRC 0F12592C
Copy OK

No errors occured

End of status report
avatar
Musicgate
Аксакал
Аксакал

Posts : 1018
Join date : 2010-09-01

View user profile

Back to top Go down

View previous topic View next topic Back to top

- Similar topics

 
Permissions in this forum:
You cannot reply to topics in this forum