Herbie Mann & Buddy Collette - Flute Fraternity - 1957

View previous topic View next topic Go down

Herbie Mann & Buddy Collette - Flute Fraternity - 1957

Post by Musicgate on Tue Dec 28, 2010 3:52 am

Herbie Mann & Buddy Collette - Flute Fraternity - 1957





Жанр: Bop
Страна-производитель диска: USA
Год издания диска: Jul 1957
Год переиздания: 1997
Издатель (лейбл): V.S.O.P. (Very Special Old Phonography)
Номер по каталогу: #38 CD Mode 114
Страна: USA

Треклист:
1. Herbie's Buddy (Herbie Mann)
2. Perdido (Tizol, Lengsfelder, Drake)
3. Baubles, Bangles and Beads (Wright, Forrest)
4. Give A Little Whistle (Harline, Washington)
5. Here's Pete (Pete Rugolo)
6. Theme From "Theme From" (Herbie Mann)
7. Nancy With The Laughing Face (Van Heusen, Silvers)
8. Morning After (Chico Hamilton)

Producer: Red Clyde

Состав:

Herbie Mann - flute, alto flute, clarinet, tenor
Buddy Collette - flute, alto flute, clarinet, tenor & alto saxophones
Jimmy Rowles - piano, celeste
Buddy Clark - bass
Mel Lewis - drums

In the 1950s, Herbie Mann frequently shared the spotlight on record dates with other flutists. This V.S.O.P. LP, a reissue of a set originally for Mode and also out for awhile on Premier, matches Mann (who here also plays piccolo, clarinet and tenor) with Buddy Collette (switching between flute, clarinet, tenor and alto) in a quintet with pianist Jimmy Rowles, bassist Buddy Clark and drummer Mel Lewis. The results are generally pleasing, if somewhat lightweight, with such obscure tunes as "Here's Buddy," Rowles' "Pop Melody," "Here's Pete" and Mann's "Theme from 'Theme From'" alternating with three standards and Chico Hamilton's "Morning After." The most interesting aspect to this lightly swinging music is the constant switching around of the lead voices on their various horns. ~ Scott Yanow

Spoiler:


Аудио кодек: FLAC (*.flac)
Тип рипа: tracks+.cue
Битрейт аудио: lossless
Продолжительность: 32:19
Источник (релизер): Render's collection / Musicgate
Наличие сканов в содержимом раздачи: да

Exact Audio Copy V0.99 prebeta 4 from 23. January 2008

EAC extraction logfile from 1. December 2010, 15:13

Herbie Mann & Buddy Collette / Flute Fraternity

Used drive : HL-DT-STDVD-RAM GH22NP20 Adapter: 0 ID: 0

Read mode : Secure
Utilize accurate stream : Yes
Defeat audio cache : Yes
Make use of C2 pointers : No

Read offset correction : 102
Overread into Lead-In and Lead-Out : No
Fill up missing offset samples with silence : Yes
Delete leading and trailing silent blocks : No
Null samples used in CRC calculations : Yes
Used interface : Installed external ASPI interface
Gap handling : Appended to previous track

Used output format : User Defined Encoder
Selected bitrate : 320 kBit/s
Quality : High
Add ID3 tag : No
Command line compressor : C:\Program Files\Exact Audio Copy\Flac\flac.exe
Additional command line options : -V -8 -T "artist=%a" -T "title=%t" -T "album=%g" -T "date=%y" -T "tracknumber=%n" -T "genre=%m" %s

TOC of the extracted CD

Track | Start | Length | Start sector | End sector
---------------------------------------------------------
1 | 0:00.67 | 4:08.39 | 67 | 18705
2 | 4:09.31 | 4:13.74 | 18706 | 37754
3 | 8:23.30 | 4:20.27 | 37755 | 57281
4 | 12:43.57 | 3:35.07 | 57282 | 73413
5 | 16:18.64 | 2:40.62 | 73414 | 85475
6 | 18:59.51 | 6:44.38 | 85476 | 115813
7 | 25:44.14 | 3:57.70 | 115814 | 133658
8 | 29:42.09 | 2:38.12 | 133659 | 145520

Track 1

Filename D:\music\Musicgate's rips\Herbie Mann & Buddy Collette - Flute Fraternity - 1957 (V.S.O.P. Records, 1997)\01 - Herbie's Buddy.wav

Pre-gap length 0:00:02.89

Peak level 100.0 %
Track quality 100.0 %
Test CRC DCF5CC2A
Copy CRC DCF5CC2A
Track not present in AccurateRip database
Copy OK

Track 2

Filename D:\music\Musicgate's rips\Herbie Mann & Buddy Collette - Flute Fraternity - 1957 (V.S.O.P. Records, 1997)\02 - Perdido.wav

Pre-gap length 0:00:02.18

Peak level 100.0 %
Track quality 100.0 %
Test CRC D1B07092
Copy CRC D1B07092
Track not present in AccurateRip database
Copy OK

Track 3

Filename D:\music\Musicgate's rips\Herbie Mann & Buddy Collette - Flute Fraternity - 1957 (V.S.O.P. Records, 1997)\03 - Baubles, Bangles and Beads.wav

Pre-gap length 0:00:01.61

Peak level 100.0 %
Track quality 100.0 %
Test CRC D11DC71D
Copy CRC D11DC71D
Track not present in AccurateRip database
Copy OK

Track 4

Filename D:\music\Musicgate's rips\Herbie Mann & Buddy Collette - Flute Fraternity - 1957 (V.S.O.P. Records, 1997)\04 - Give A Little Whistle.wav

Pre-gap length 0:00:02.77

Peak level 99.3 %
Track quality 100.0 %
Test CRC 08D83BD0
Copy CRC 08D83BD0
Track not present in AccurateRip database
Copy OK

Track 5

Filename D:\music\Musicgate's rips\Herbie Mann & Buddy Collette - Flute Fraternity - 1957 (V.S.O.P. Records, 1997)\05 - Here's Pete.wav

Pre-gap length 0:00:02.69

Peak level 82.5 %
Track quality 100.0 %
Test CRC 80B59D12
Copy CRC 80B59D12
Track not present in AccurateRip database
Copy OK

Track 6

Filename D:\music\Musicgate's rips\Herbie Mann & Buddy Collette - Flute Fraternity - 1957 (V.S.O.P. Records, 1997)\06 - Theme From 'Theme From'.wav

Pre-gap length 0:00:02.44

Peak level 100.0 %
Track quality 100.0 %
Test CRC CCB4EA08
Copy CRC CCB4EA08
Track not present in AccurateRip database
Copy OK

Track 7

Filename D:\music\Musicgate's rips\Herbie Mann & Buddy Collette - Flute Fraternity - 1957 (V.S.O.P. Records, 1997)\07 - Nancy With The Laughing Face.wav

Pre-gap length 0:00:02.20

Peak level 58.4 %
Track quality 100.0 %
Test CRC 30BC02D0
Copy CRC 30BC02D0
Track not present in AccurateRip database
Copy OK

Track 8

Filename D:\music\Musicgate's rips\Herbie Mann & Buddy Collette - Flute Fraternity - 1957 (V.S.O.P. Records, 1997)\08 - Morning After.wav

Pre-gap length 0:00:02.68

Peak level 93.3 %
Track quality 100.0 %
Test CRC D00FD7C4
Copy CRC D00FD7C4
Track not present in AccurateRip database
Copy OK

None of the tracks are present in the AccurateRip database

No errors occurred

End of status report



avatar
Musicgate
Аксакал
Аксакал

Posts : 1018
Join date : 2010-09-01

View user profile

Back to top Go down

View previous topic View next topic Back to top

- Similar topics

 
Permissions in this forum:
You cannot reply to topics in this forum