Phil Manzanera

Go down

Phil Manzanera

Post by Musicgate on Sat Nov 20, 2010 11:25 pm

Phil Manzanera - 50 Minutes Later (2005)







Жанр: Prog Rock, Album Rock
Страна исполнителя: England
Дата записи: Recorded and mixed at Gallery Studios London 2004 - 2005
Год издания: Oct 25, 2005
Издатель (лейбл): Hannibal
Номер по каталогу: HNCD 1503
Источник (релизер): Моя коллекция, мой рип

Трэклист:
1. Revolution (Manzanera) - 5:32
2. Technicolor UFO (Manzanera) - 4:12
3. That's All I Know (Manzanera) - 4:44
4. 50 Minutos Mas Tarde (Eno, Manzanera, Wyatt) - 6:04
5. Desaparecido (Manzanera, Singers) - 4:03
6. Dusza (Manzanera, Wyatt) - 1:20
7. One Step (Manzanera) - 4:36
8. Swimming (Manzanera, Singers) - 4:48
9. Bible Black (Eno, Manzanera, Wyatt) - 5:19
10. Till the End of the Line (Manzanera) - 9:21
11. Enotonik Bible Black (Eno, Manzanera, Wyatt) - 10:34

Состав:
PHIL MANZANERA: guitars / vocals / keyboards
ROBERT WYATT: perc / keyboards / vocals / cornet
BRIAN ENO: chaos drums / keyboards / Enotonik treatment
CLAIRE SINGERS: vocals
PAULTHOMPSON: drums
ANDY MACKAY: soprano saxophone
JAMIE JOHNSON: bass
YARON STAVI: acoustic bass
PADDY MILNER: grand piano
BRENDAN JURY: viola
NIGEL SIMPSON: grand piano
ROMANO VIAZZANI: accordion
ANDRES T!CINO:cajon
LUCHO BRIEVA: voice
GINA BELLMAN: voice
MARK MCCARTHY: sound effects

"Содержание индексной карты (.CUE):":

REM GENRE "Progressive Rock"
REM DATE 2005
REM DISCID 910E350B
REM COMMENT "ExactAudioCopy v0.99pb4"
PERFORMER "Phil Manzanera"
TITLE "50 Minutes Later"
FILE "01 - Revolution.wav" WAVE
TRACK 01 AUDIO
TITLE "Revolution"
PERFORMER "Phil Manzanera"
INDEX 01 00:00:00
TRACK 02 AUDIO
TITLE "Technicolor UFO"
PERFORMER "Phil Manzanera"
INDEX 00 05:30:30
FILE "02 - Technicolor UFO.wav" WAVE
INDEX 01 00:00:00
TRACK 03 AUDIO
TITLE "That's All I Know"
PERFORMER "Phil Manzanera"
INDEX 00 04:10:39
FILE "03 - That's All I Know.wav" WAVE
INDEX 01 00:00:00
TRACK 04 AUDIO
TITLE "50 Minutos Mas Tarde"
PERFORMER "Phil Manzanera"
INDEX 00 04:43:05
FILE "04 - 50 Minutos Mas Tarde.wav" WAVE
INDEX 01 00:00:00
FILE "05 - Desaparecido.wav" WAVE
TRACK 05 AUDIO
TITLE "Desaparecido"
PERFORMER "Phil Manzanera"
INDEX 01 00:00:00
FILE "06 - Dusza.wav" WAVE
TRACK 06 AUDIO
TITLE "Dusza"
PERFORMER "Phil Manzanera"
INDEX 01 00:00:00
FILE "07 - One Step.wav" WAVE
TRACK 07 AUDIO
TITLE "One Step"
PERFORMER "Phil Manzanera"
INDEX 01 00:00:00
TRACK 08 AUDIO
TITLE "Swimming"
PERFORMER "Phil Manzanera"
INDEX 00 04:34:13
FILE "08 - Swimming.wav" WAVE
INDEX 01 00:00:00
TRACK 09 AUDIO
TITLE "Bible Black"
PERFORMER "Phil Manzanera"
INDEX 00 04:46:10
FILE "09 - Bible Black.wav" WAVE
INDEX 01 00:00:00
FILE "10 - Till the End of the Line.wav" WAVE
TRACK 10 AUDIO
TITLE "Till the End of the Line"
PERFORMER "Phil Manzanera"
INDEX 01 00:00:00
TRACK 11 AUDIO
TITLE "Enotonik Bible Black [Mainstream Version] [*]"
PERFORMER "Phil Manzanera"
INDEX 00 09:16:34
FILE "11 - Enotonik Bible Black [Mainstream Version] [x].wav" WAVE
INDEX 01 00:00:00
"Лог создания рипа":

Exact Audio Copy V0.99 prebeta 4 from 23. January 2008

EAC extraction logfile from 19. November 2010, 13:28

Phil Manzanera / 50 Minutes Later

Used drive : HL-DT-STDVD-RAM GH22NP20 Adapter: 0 ID: 0

Read mode : Secure
Utilize accurate stream : Yes
Defeat audio cache : Yes
Make use of C2 pointers : No

Read offset correction : 102
Overread into Lead-In and Lead-Out : No
Fill up missing offset samples with silence : Yes
Delete leading and trailing silent blocks : No
Null samples used in CRC calculations : Yes
Used interface : Installed external ASPI interface
Gap handling : Appended to previous track

Used output format : User Defined Encoder
Selected bitrate : 320 kBit/s
Quality : High
Add ID3 tag : No
Command line compressor : C:\Program Files\Exact Audio Copy\Flac\flac.exe
Additional command line options : -V -8 -T "artist=%a" -T "title=%t" -T "album=%g" -T "date=%y" -T "tracknumber=%n" -T "genre=%m" %s


TOC of the extracted CD

Track | Start | Length | Start sector | End sector
---------------------------------------------------------
1 | 0:00.00 | 5:32.30 | 0 | 24929
2 | 5:32.30 | 4:12.39 | 24930 | 43868
3 | 9:44.69 | 4:44.05 | 43869 | 65173
4 | 14:28.74 | 6:04.44 | 65174 | 92517
5 | 20:33.43 | 4:03.42 | 92518 | 110784
6 | 24:37.10 | 1:20.56 | 110785 | 116840
7 | 25:57.66 | 4:36.13 | 116841 | 137553
8 | 30:34.04 | 4:48.10 | 137554 | 159163
9 | 35:22.14 | 5:19.27 | 159164 | 183115
10 | 40:41.41 | 9:21.30 | 183116 | 225220
11 | 50:02.71 | 10:34.53 | 225221 | 272823


Track 1

Filename D:\music\Musicgate's rips\Phil Manzanera - 50 Minutes Later (2005)\01 - Revolution.wav

Pre-gap length 0:00:02.00

Peak level 89.0 %
Track quality 99.9 %
Test CRC C63A513F
Copy CRC C63A513F
Accurately ripped (confidence 10) [CD33968E]
Copy OK

Track 2

Filename D:\music\Musicgate's rips\Phil Manzanera - 50 Minutes Later (2005)\02 - Technicolor UFO.wav

Pre-gap length 0:00:02.00

Peak level 89.0 %
Track quality 100.0 %
Test CRC 5DCD0E89
Copy CRC 5DCD0E89
Accurately ripped (confidence 11) [CF11A55A]
Copy OK

Track 3

Filename D:\music\Musicgate's rips\Phil Manzanera - 50 Minutes Later (2005)\03 - That's All I Know.wav

Pre-gap length 0:00:02.00

Peak level 89.0 %
Track quality 100.0 %
Test CRC 94C6C1DA
Copy CRC 94C6C1DA
Accurately ripped (confidence 11) [424AD817]
Copy OK

Track 4

Filename D:\music\Musicgate's rips\Phil Manzanera - 50 Minutes Later (2005)\04 - 50 Minutos Mas Tarde.wav

Pre-gap length 0:00:01.00

Peak level 89.0 %
Track quality 99.9 %
Test CRC EE58E2A8
Copy CRC EE58E2A8
Accurately ripped (confidence 11) [10D34B63]
Copy OK

Track 5

Filename D:\music\Musicgate's rips\Phil Manzanera - 50 Minutes Later (2005)\05 - Desaparecido.wav

Peak level 89.0 %
Track quality 100.0 %
Test CRC 30919BF1
Copy CRC 30919BF1
Accurately ripped (confidence 11) [D15E607D]
Copy OK

Track 6

Filename D:\music\Musicgate's rips\Phil Manzanera - 50 Minutes Later (2005)\06 - Dusza.wav

Peak level 45.2 %
Track quality 100.0 %
Test CRC 8771AE14
Copy CRC 8771AE14
Accurately ripped (confidence 11) [B2B308E8]
Copy OK

Track 7

Filename D:\music\Musicgate's rips\Phil Manzanera - 50 Minutes Later (2005)\07 - One Step.wav

Peak level 100.0 %
Track quality 100.0 %
Test CRC 8E5FB43F
Copy CRC 8E5FB43F
Accurately ripped (confidence 11) [144EB68D]
Copy OK

Track 8

Filename D:\music\Musicgate's rips\Phil Manzanera - 50 Minutes Later (2005)\08 - Swimming.wav

Pre-gap length 0:00:02.00

Peak level 89.0 %
Track quality 100.0 %
Test CRC 8FFC175E
Copy CRC 8FFC175E
Accurately ripped (confidence 11) [444119EC]
Copy OK

Track 9

Filename D:\music\Musicgate's rips\Phil Manzanera - 50 Minutes Later (2005)\09 - Bible Black.wav

Pre-gap length 0:00:02.00

Peak level 89.0 %
Track quality 100.0 %
Test CRC DDE8C67E
Copy CRC DDE8C67E
Accurately ripped (confidence 11) [BE035A14]
Copy OK

Track 10

Filename D:\music\Musicgate's rips\Phil Manzanera - 50 Minutes Later (2005)\10 - Till the End of the Line.wav

Peak level 89.0 %
Track quality 100.0 %
Test CRC C9FDA8DC
Copy CRC C9FDA8DC
Accurately ripped (confidence 10) [856B2471]
Copy OK

Track 11

Filename D:\music\Musicgate's rips\Phil Manzanera - 50 Minutes Later (2005)\11 - Enotonik Bible Black [Mainstream Version] [x].wav

Pre-gap length 0:00:04.94

Peak level 89.0 %
Track quality 100.0 %
Test CRC C0C0CC5D
Copy CRC C0C0CC5D
Accurately ripped (confidence 11) [E941A481]
Copy OK


All tracks accurately ripped

No errors occurred

End of status report
"Лог проверки качества":

Аудио кодек: FLAC (*.flac)
Тип рипа: (tracks + .cue)
Корректность рипа: EAC ripped, correct read offset, test and copy, accuratelly ripped
Битрейт аудио: lossless
Наличие сканов в содержимом раздачи: full scans, png, 300 dpi
Продолжительность: 1:00:37




avatar
Musicgate
Аксакал
Аксакал

Posts : 1018
Join date : 2010-09-01

View user profile

Back to top Go down

Re: Phil Manzanera

Post by sole-survivor on Sat Nov 20, 2010 11:42 pm

Большое спасибо, Борис. cheers

_________________


Когда при мне говорят "Все будет хорошо", Я не знаю, что они имеют в виду.
(с) Б.Г. "Зимняя Роза"
avatar
sole-survivor
Бургомистр
Бургомистр

Posts : 813
Join date : 2010-09-01
Age : 53
Location : alwayz vs ya!

View user profile http://www.musicalbox.ru/forum/

Back to top Go down

Re: Phil Manzanera

Post by atlan on Mon Nov 22, 2010 4:18 pm

Thank you !

atlan

Posts : 56
Join date : 2010-09-08

View user profile

Back to top Go down

Re: Phil Manzanera

Post by Sponsored content


Sponsored content


Back to top Go down

Back to top


 
Permissions in this forum:
You cannot reply to topics in this forum