Afroskull - NMRs

View previous topic View next topic Go down

Afroskull - NMRs

Post by Musicgate on Sat Nov 06, 2010 3:22 am

Afroskull - Monster For The Masses - 2000



Genre: progressive jazz-rock/funk/Big Band
Country: USA
Label: Secret Ninja Records SNR2000

Source: lindinalwa, rutracker.org
Included: FLAC (image+.cue)
Rip validating: EAC ripped, correct, test and cope mode, accurately ripped
Covers: Full Artworks provided
Total time: 67:56

Tracks info:
1. The Attack
2. Kill Whitey
3. Layers
4. The Obstacle Course
5. Curiosity
6. Radio Alert
7. IT
8. Space Chicken
9. Television Intermission
10. Eat This
11. Theme From Afroskull/Monster For The Massese
12. Beefcake

Personel info:
Bill Richards - bass, vocals
Joe Scatassa - guiyars, vocals, trombone
Jason Isaac - drums
Matt Barone - key.
Earl Scioneaux - organ
Chuk Barber - percussion
Magic Earl Scioneaux - organ
Chuck Arnold - trumpet
Mick Voltz - trumpets
Scott Bourgeoius - sax
Jason Mingledorf - sax
Jason Yasinsky - trombone
Clarence Bourgeoius - alto
Mike Jenner - fugue tenor
Mark Rapp - fugue trumpet


About performer:
http://www.afroskull.com/
http://www.facebook.com/pages/Afroskull/7568859060
http://www.myspace.com/afroskull


Spoiler:
Exact Audio Copy V0.99 prebeta 5 from 4. May 2009

EAC extraction logfile from 26. October 2010, 19:51

Afroskull / Monster for the Masses

Used drive : Optiarc DVD RW AD-7243S Adapter: 0 ID: 1
Read mode : Secure
Utilize accurate stream : Yes
Defeat audio cache : Yes
Make use of C2 pointers : No

Read offset correction : 48
Overread into Lead-In and Lead-Out : No
Fill up missing offset samples with silence : Yes
Delete leading and trailing silent blocks : No
Null samples used in CRC calculations : Yes

Used interface : Native Win32 interface for Win NT & 2000
Used output format : User Defined Encoder
Selected bitrate : 768 kBit/s
Quality : High
Add ID3 tag : No
Command line compressor : C:\Program Files\Exact Audio Copy\FLAC\FLAC.EXE
Additional command line options : -6 -V -T "ARTIST=%a" -T "TITLE=%t" -T "ALBUM=%g" -T "DATE=%y" -T "TRACKNUMBER=%n" -T "GENRE=%m" -T "COMMENT=%e" %s -o %d

TOC of the extracted CD

Track | Start | Length | Start sector | End sector
---------------------------------------------------------
1 | 0:00.00 | 0:50.04 | 0 | 3753
2 | 0:50.04 | 6:55.68 | 3754 | 34946
3 | 7:45.72 | 7:03.71 | 34947 | 66742
4 | 14:49.68 | 7:57.59 | 66743 | 102576
5 | 22:47.52 | 5:20.44 | 102577 | 126620
6 | 28:08.21 | 0:43.56 | 126621 | 129901
7 | 28:52.02 | 8:43.48 | 129902 | 169174
8 | 37:35.50 | 5:49.09 | 169175 | 195358
9 | 43:24.59 | 0:52.51 | 195359 | 199309
10 | 44:17.35 | 8:45.26 | 199310 | 238710
11 | 53:02.61 | 7:05.06 | 238711 | 270591
12 | 60:07.67 | 7:45.30 | 270592 | 305496

Range status and errors

Selected range

Filename C:\Documents and Settings\S\Мои документы\Torrent раздача\Afroskull - Monster for the Masses.wav
Peak level 98.8 %
Range quality 100.0 %
Test CRC 578987DE
Copy CRC 578987DE
Copy OK

No errors occurred

AccurateRip summary

Track 1 accurately ripped (confidence 1) [8B777C27]
Track 2 accurately ripped (confidence 1) [4BA4F032]
Track 3 accurately ripped (confidence 1) [0F931E17]
Track 4 accurately ripped (confidence 1) [B2B4CB6D]
Track 5 accurately ripped (confidence 1) [1E2B0E0D]
Track 6 accurately ripped (confidence 1) [8FEE012A]
Track 7 accurately ripped (confidence 1) [661D3EF0]
Track 8 accurately ripped (confidence 1) [05724756]
Track 9 accurately ripped (confidence 1) [7B64D1D4]
Track 10 accurately ripped (confidence 1) [F92F5862]
Track 11 accurately ripped (confidence 1) [CA63EB56]
Track 12 accurately ripped (confidence 1) [7ED5B691]

All tracks accurately ripped

End of status report


Last edited by Musicgate on Sat Nov 06, 2010 3:41 am; edited 1 time in total
avatar
Musicgate
Аксакал
Аксакал

Posts : 1018
Join date : 2010-09-01

View user profile

Back to top Go down

Re: Afroskull - NMRs

Post by Musicgate on Sat Nov 06, 2010 3:33 am

Afroskull - To Obscurity And Beyond - 2009



Genre: progressive jazz-rock/funk/Brass Band
Country: USA
Label: Skul Sound Rec. sklsnd-2009

Source: lindinalwa, rutracker.org
Included: FLAC (image+.cue)
Rip validating: EAC ripped, correct, test and cope mode
Covers: Full Artworks provided
Total time: 58:48

Tracks info:
1. ...the launch
2. spyplane
3. waste managemeht
4. me and my tv
5. dance of the wild koba
6. the curse
7. ...could this be the end?
8. redemption
9. everything
10. zero hour
11. escape from rome

Personel info:
Joe Scatassa- guitars
Jason Isaac - drums, percussion
Matt Iselin - organ, clavinet
Dan Asher - bass
Seth Moutal - percussion
With
Ronnie Cuber - sax, clarinet
Jeff Pierce - trumpets
Justin Flynn - sax
Rafi Malkiel - trombone
Rick Troisen - trombone
Mark Teofilo - orchestral percussion
Michael Taylor - vocal
Bill Richards, Carol Thomas, Sarah Gromko, Andree Dupepe - backup vacals

Releases info:

Chart & Awards info:
progarchives

About performer:

About albume:

Code:
uploading now

http://rutracker.org/forum/viewtopic.php?t=3245394

Spoiler:

Exact Audio Copy V0.99 prebeta 5 from 4. May 2009

EAC extraction logfile from 1. November 2010, 19:02

Afroskull / To Obscurity and Beyond

Used drive : Optiarc DVD RW AD-7243S Adapter: 0 ID: 1

Read mode : Secure
Utilize accurate stream : Yes
Defeat audio cache : Yes
Make use of C2 pointers : No

Read offset correction : 48
Overread into Lead-In and Lead-Out : No
Fill up missing offset samples with silence : Yes
Delete leading and trailing silent blocks : No
Null samples used in CRC calculations : Yes
Used interface : Native Win32 interface for Win NT & 2000

Used output format : User Defined Encoder
Selected bitrate : 768 kBit/s
Quality : High
Add ID3 tag : No
Command line compressor : C:\Program Files\Exact Audio Copy\FLAC\FLAC.EXE
Additional command line options : -6 -V -T "ARTIST=%a" -T "TITLE=%t" -T "ALBUM=%g" -T "DATE=%y" -T "TRACKNUMBER=%n" -T "GENRE=%m" -T "COMMENT=%e" %s -o %d

TOC of the extracted CD

Track | Start | Length | Start sector | End sector
---------------------------------------------------------
1 | 0:00.00 | 0:19.35 | 0 | 1459
2 | 0:19.35 | 6:19.57 | 1460 | 29941
3 | 6:39.17 | 6:19.23 | 29942 | 58389
4 | 12:58.40 | 5:54.70 | 58390 | 85009
5 | 18:53.35 | 7:26.42 | 85010 | 118501
6 | 26:20.02 | 7:38.41 | 118502 | 152892
7 | 33:58.43 | 0:40.55 | 152893 | 155947
8 | 34:39.23 | 5:56.70 | 155948 | 182717
9 | 40:36.18 | 5:55.17 | 182718 | 209359
10 | 46:31.35 | 6:22.15 | 209360 | 238024
11 | 52:53.50 | 8:05.32 | 238025 | 274431

Range status and errors

Selected range

Filename C:\Documents and Settings\S\Мои документы\Torrent раздача\Afroskull - To Obscurity and Beyond.wav

Peak level 100.0 %
Range quality 100.0 %
Test CRC 2FC9E96E
Copy CRC 2FC9E96E

Copy OK

No errors occurred

AccurateRip summary

Track 1 not present in database
Track 2 not present in database
Track 3 not present in database
Track 4 not present in database
Track 5 not present in database
Track 6 not present in database
Track 7 not present in database
Track 8 not present in database
Track 9 not present in database
Track 10 not present in database
Track 11 not present in database

None of the tracks are present in the AccurateRip database

End of status report
avatar
Musicgate
Аксакал
Аксакал

Posts : 1018
Join date : 2010-09-01

View user profile

Back to top Go down

View previous topic View next topic Back to top


 
Permissions in this forum:
You cannot reply to topics in this forum