Geva Alon (Folk-rock)

Go down

Geva Alon (Folk-rock)

Post by Musicgate on Sat Oct 30, 2010 9:13 pm

Geva Alon - Get Closer - 2009







Жанр: Folk-rock
Страна исполнителя: Israel
Год издания: November 10, 2009
Страна - производитель диска: Israel
Издатель (лейбл): 2B Vibes
Номер по каталогу: 7290013013149
Продолжительность: 43:36
Источник (релизер): Моя коллекция, мой рип

Трэклист:
1. "Here Comes the Tune" 3:40
2. "Help Me Girl" 2:41
3. "Come Race Me" 4:35
4. "The Wind Whispers" 4:02
5. "I Can See the Stars" 4:00
6. "Comet" 4:43
7. "The Folks Back Home" 6:25
8. "Fade Away With You" 3:50
9. "Green Valley" 2:01
10. "Get Closer Now" 7:39
All music and lyrics by Geva Alon Produced, recorded & mixed by Thom Monahan

Состав:
Geva Alon - Lead Vocals, Guitars & Piano
Ben Golan - Guitars & Vocals
Dor Koren - Bass & Vocals
Naveh Koren - drums, percussion

"Get Closer" - третий сольный альбом (6-й альбом, если засчитывать время, проведенное в качестве лидера и автора "the flying baby"). Альбом показывает Геву с аккомпанирующим составом (3 члена Израильской психоделик джем группы "Tree"), играющими поразительные новые арранжировки в стилевом диапазоне от навязчивого альтернативного рока до психоделической гитары и кантри музыки, это отражательный и иногда задумчивый фолк-рок, частично акустический, частично электрический, с великолепной гитарой Алон, сверкающей, как никогда. help me girl - мечтательный печальный эйсид-фолк, "get closer now" & "come race me" - мрачная электро-классика с взрывами гитарных соло, изобретательная и с намеком на Тома Верлена ..). Замечательное общее звучание и продюссирование было сделано Томом Монаханом (Devendra Banhart, Vetiver, Silver Jews, Dinosaur Jr, Jayhawks и многие другие), который приехал в Израиль к Алону для записи и затем сделал микширование у себя, в Калифорнии. Это очень личная работа, написанная после 10 месячного тура по Штатам, кульминацией которого было его выступление в Fillmore в сентябре 2008 в шоу с Paul Weller. Это один из лучших англоязычных альбомов, вышедших в Израиле в последнее время!

Spoiler:


Аудио кодек: FLAC (*.flac)
Тип рипа: (tracks + .cue)
Корректность рипа: EAC ripped, correct read offset, test and copy, accuratelly ripped
Битрейт аудио: lossless
Наличие сканов в содержимом раздачи: full scans, png, 300 dpi

Exact Audio Copy V0.99 prebeta 4 from 23. January 2008

EAC extraction logfile from 2. October 2010, 15:18

Geva Alon / Get Closer

Used drive : HL-DT-STDVD-RAM GH22NP20 Adapter: 0 ID: 0

Read mode : Secure
Utilize accurate stream : Yes
Defeat audio cache : Yes
Make use of C2 pointers : No

Read offset correction : 102
Overread into Lead-In and Lead-Out : No
Fill up missing offset samples with silence : Yes
Delete leading and trailing silent blocks : No
Null samples used in CRC calculations : Yes
Used interface : Installed external ASPI interface
Gap handling : Appended to previous track

Used output format : User Defined Encoder
Selected bitrate : 320 kBit/s
Quality : High
Add ID3 tag : No
Command line compressor : C:\Program Files\Exact Audio Copy\Flac\flac.exe
Additional command line options : -V -8 -T "artist=%a" -T "title=%t" -T "album=%g" -T "date=%y" -T "tracknumber=%n" -T "genre=%m" %s

TOC of the extracted CD

Track | Start | Length | Start sector | End sector
---------------------------------------------------------
1 | 0:00.00 | 3:40.35 | 0 | 16534
2 | 3:40.35 | 2:41.41 | 16535 | 28650
3 | 6:22.01 | 4:35.31 | 28651 | 49306
4 | 10:57.32 | 4:02.12 | 49307 | 67468
5 | 14:59.44 | 4:00.16 | 67469 | 85484
6 | 18:59.60 | 4:43.66 | 85485 | 106775
7 | 23:43.51 | 6:25.01 | 106776 | 135651
8 | 30:08.52 | 3:50.04 | 135652 | 152905
9 | 33:58.56 | 2:01.39 | 152906 | 162019
10 | 36:00.20 | 7:39.07 | 162020 | 196451

Track 1

Filename D:\music\Musicgate's rips\Geva Alon - Get Closer - 2009 (2B Vibes)\01 - Here Comes The Tune.wav

Pre-gap length 0:00:02.00

Peak level 98.8 %
Track quality 99.9 %
Test CRC FA8DC523
Copy CRC FA8DC523
Accurately ripped (confidence 3) [5DC6BBFE]
Copy OK

Track 2

Filename D:\music\Musicgate's rips\Geva Alon - Get Closer - 2009 (2B Vibes)\02 - Help Me Girl.wav

Peak level 98.8 %
Track quality 100.0 %
Test CRC A4CC2E98
Copy CRC A4CC2E98
Accurately ripped (confidence 3) [C13D45E1]
Copy OK

Track 3

Filename D:\music\Musicgate's rips\Geva Alon - Get Closer - 2009 (2B Vibes)\03 - Come Race Me.wav

Peak level 98.8 %
Track quality 100.0 %
Test CRC 876B0037
Copy CRC 876B0037
Accurately ripped (confidence 3) [C4E8C2BF]
Copy OK

Track 4

Filename D:\music\Musicgate's rips\Geva Alon - Get Closer - 2009 (2B Vibes)\04 - The Wind Whispers.wav

Peak level 98.8 %
Track quality 100.0 %
Test CRC 7D381D6E
Copy CRC 7D381D6E
Accurately ripped (confidence 3) [12051041]
Copy OK

Track 5

Filename D:\music\Musicgate's rips\Geva Alon - Get Closer - 2009 (2B Vibes)\05 - I Can See The Stars.wav

Peak level 98.8 %
Track quality 100.0 %
Test CRC 1BD9E8FB
Copy CRC 1BD9E8FB
Accurately ripped (confidence 3) [3CF88724]
Copy OK

Track 6

Filename D:\music\Musicgate's rips\Geva Alon - Get Closer - 2009 (2B Vibes)\06 - Comet.wav

Peak level 98.8 %
Track quality 100.0 %
Test CRC F33B8F34
Copy CRC F33B8F34
Accurately ripped (confidence 2) [403C81CF]
Copy OK

Track 7

Filename D:\music\Musicgate's rips\Geva Alon - Get Closer - 2009 (2B Vibes)\07 - The Folks Back Home.wav

Pre-gap length 0:00:02.61

Peak level 98.8 %
Track quality 100.0 %
Test CRC DF5F88C4
Copy CRC DF5F88C4
Accurately ripped (confidence 3) [6CCAB389]
Copy OK

Track 8

Filename D:\music\Musicgate's rips\Geva Alon - Get Closer - 2009 (2B Vibes)\08 - Fade Away With You.wav

Pre-gap length 0:00:02.04

Peak level 98.8 %
Track quality 100.0 %
Test CRC 95954502
Copy CRC 95954502
Accurately ripped (confidence 3) [8C136A9D]
Copy OK

Track 9

Filename D:\music\Musicgate's rips\Geva Alon - Get Closer - 2009 (2B Vibes)\09 - Green Valley.wav

Pre-gap length 0:00:03.68

Peak level 96.7 %
Track quality 99.9 %
Test CRC E03C20CC
Copy CRC E03C20CC
Accurately ripped (confidence 3) [07A35B57]
Copy OK

Track 10

Filename D:\music\Musicgate's rips\Geva Alon - Get Closer - 2009 (2B Vibes)\10 - Get Closer Now.wav

Peak level 98.8 %
Track quality 100.0 %
Test CRC 17E8B2F6
Copy CRC 17E8B2F6
Accurately ripped (confidence 3) [233FD3A0]
Copy OK

All tracks accurately ripped

No errors occurred

End of status report



avatar
Musicgate
Аксакал
Аксакал

Posts : 1018
Join date : 2010-09-01

View user profile

Back to top Go down

Back to top


 
Permissions in this forum:
You cannot reply to topics in this forum