Meadows End (folk-rock)

View previous topic View next topic Go down

Meadows End (folk-rock)

Post by Musicgate on Tue Oct 26, 2010 4:05 am

Meadows End - Meadows End - 2006







Уникальная израильская фолк-рок группа, создавшая в середине 70-ых мост между израильским кибуцем и западным берегом США, с вокальными гармониями в стиле Stills, Nash & Young и мелодиями в духе израильской песенной классики

Жанр: Folk-rock
Страна исполнителя: Israel
Дата записи: 1975
Год издания оригинала: 1975
Год переиздания: 2006
Страна - производитель диска: Israel
Издатель (лейбл): NMC Music Ltd
Номер по каталогу: 81905-2
Тип: expanded reedition
Продолжительность: 55:09
Источник (релизер): Моя коллекция, мой рип

Трэклист:
Lp
Side 1
1. THE EDGE OF THE FIELD
Yehuda Amihai - Reuven Gvirtz (3:50)
2. EREV BA (EVENING COMES)
Oded Avissar - Aryeh Levanon (3:37)
3. WHEN I WAS A BOY
Yehuda Amihai - Gay Joffe/Reuven Gvirtz (5:30)
4. EIN GEDI **
Eytan Peretz - Shalom Divon (3:32)
5. BETWEEN WORLDS *
Yael Flrstenberg - Gay Joffe (3:25)

Side 2
6. SOMETIMES I FFEL LIKE FLYING
Gay Joffe/Reuven Gvirtz/Zvi Booms (5:00)
7. LONELY STREET LAMP
Chaim Guri - Alexander Argov (4:30)
8. YESTERNIGHT
Naomi Shemer (3:38)
9, IT'S NOT THE SEA * (with Ricky Manor)
Leah Goldberg - Gay Joffe & Reuven Gvirtz (8:18)

Bonus
10. It's Can't To Be (live 1976, previously unreleased) (2:42)
11. Grain (previously unreleased) (1:42)
12. Purple Dress (3:49)
13. Sometimes I Feel Like Flying (broadcasting version, previously unreleased)(5:33)
14. Yesternight (broadcasting version, previously unreleased) (3:50)

Musical arrangements by Gay Joffe & Reuven Gvirtz except
* arranged by Matti Caspi
** Keyboards - Moshe Zarma
Vocal arrangements by Gay Joffe/Reuven Gvirtz

Состав:
Gay Joffe, Reuven Gvirtz, Zvi Booms



В начале 70-ых израильская музыка была вовлечена в замечательный процесс обновления, артисты в Израиле жадно впитывали влияния со всех возможных направлений - рок и джаз с Запада и восточные звучания из мест, где мы родились. Каверет, Тамуз, 14 октав, Кцат Ахерет, Мати Каспи и Шломо Гроних - только часть тех, кто смешивал джаз, рок и классику. Нисим Сарусси и Авнер Гадаси, выходцы из Rhythm Bands - пионеры средиземноморской волны, Шломо Бар и Брира Тивит - провозвестники этно-течения. Но чего-то не хватало - вот если бы можно бы было соединить Кросби, Стилс энд Нэш и трио Гешер А-Яркон? И вот в 1975 была создана очень “израильская” группа с новыми вокальными гармониями и гитарами, создавшая мост между израильским кибуцем и западным берегом Штатов. Трио было создано тремя свежими выходцами из армейских ансамблей - Цви Бумс и Реувен Гвирц из группы Нахаль (участвовали в программе Пальмахник, посвященной 30-летию Пальмаха, вместе с Гиди Говом, Эфраимом Шамиром, Ярденой Арази и другими) и Гай Йоффе из трио командования центрального округа (Дорит Реувени и Цвика Кармель). С продюсером Ашером Битански трио выпустило первый сингл с двумя песнями, записанными для радио - собственной оригинальной песней "Иногда хочется летать" и 'Вчерашняя ночь" (текст и музыка Наоми Шемер). Эти 2 песни представляли музыкальный образ группы - соединение рока и фолка, израильской "классической" песни и оригинальных материалов, причем все - в прекрасных вокальных аранжировках, они представлены в бонусных треках на CD издании.

После длительных репетиций (похоже, группа никогда не посвящала столько репетиций для настолько малого количества выступлений), тянувшихся в течение года, трио начало выступать в рамках шоу "Деревенское время" (А-Зман А-Кафри ) вместе с Тамуз, Ариком Айнштейном, и американским автором - исполнителем Томом Хардином - в бонусах к CD изданию есть песня "Не может быть", записанная на этом концерте. Во время этих выступлений группа начала работать над дебютным альбомом. Записи происходили в студии Тритон, аранжировки песен писали сами члены группы. В альбом вошло 9 песен, 5 из которых были новыми, остальные 4 были записаны в новых аранжировках. К CD версии добавлено также исполнение песен Хаима Хефера и Саши Аргова “Сиреневое платье” (в оригинале исполнялось группой ”Бацаль Ярок”) и ”Зерна” (в оригинале - ”Гиватрон”). Альбом явно показывает, что причиной распада группы были коммерческие, а не творческие проблемы. После выхода альбома группа почти не выступала и быстро распалась. Реувен Гвирц присоединился к группе ”Халяв у Дваш” (Молоко и мед), Цви Бумс занялся бизнесом за границей и в 1989 выпустил сольный альбом, Гай Йоффэ стал одним из хозяев студии Тритон и востребованным музыкальным продюсером.

Лиор Мизрахи – январь 2006, linear notes for CD re-edition


Spoiler:

Аудио кодек: FLAC (*.flac)
Тип рипа: (tracks + .cue)
Корректность рипа: EAC ripped, correct read offset, test and copy
Битрейт аудио: lossless
Наличие сканов в содержимом раздачи: full scans, png, 300 dpi

Exact Audio Copy V0.99 prebeta 4 from 23. January 2008

EAC extraction logfile from 2. October 2010, 13:19

Meadows End / Meadows End

Used drive : HL-DT-STDVD-RAM GH22NP20 Adapter: 0 ID: 0

Read mode : Secure
Utilize accurate stream : Yes
Defeat audio cache : Yes
Make use of C2 pointers : No

Read offset correction : 102
Overread into Lead-In and Lead-Out : No
Fill up missing offset samples with silence : Yes
Delete leading and trailing silent blocks : No
Null samples used in CRC calculations : Yes
Used interface : Installed external ASPI interface
Gap handling : Appended to previous track

Used output format : User Defined Encoder
Selected bitrate : 320 kBit/s
Quality : High
Add ID3 tag : No
Command line compressor : C:\Program Files\Exact Audio Copy\Flac\flac.exe
Additional command line options : -V -8 -T "artist=%a" -T "title=%t" -T "album=%g" -T "date=%y" -T "tracknumber=%n" -T "genre=%m" %s


TOC of the extracted CD

Track | Start | Length | Start sector | End sector
---------------------------------------------------------
1 | 0:00.00 | 3:20.36 | 0 | 15035
2 | 3:20.36 | 3:23.41 | 15036 | 30301
3 | 6:44.02 | 5:28.10 | 30302 | 54911
4 | 12:12.12 | 3:31.03 | 54912 | 70739
5 | 15:43.15 | 3:24.61 | 70740 | 86100
6 | 19:08.01 | 5:05.41 | 86101 | 109016
7 | 24:13.42 | 4:25.57 | 109017 | 128948
8 | 28:39.24 | 3:38.72 | 128949 | 145370
9 | 32:18.21 | 5:14.09 | 145371 | 168929
10 | 37:32.30 | 2:42.73 | 168930 | 181152
11 | 40:15.28 | 1:42.63 | 181153 | 188865
12 | 41:58.16 | 3:47.52 | 188866 | 205942
13 | 45:45.68 | 5:34.64 | 205943 | 231056
14 | 51:20.57 | 3:49.08 | 231057 | 248239


Track 1

Filename D:\music\Musicgate's rips\Meadows End - Meadows End - 2006 (NMC)\01 - The Edge Of The Field.wav

Pre-gap length 0:00:02.00

Peak level 99.6 %
Track quality 100.0 %
Test CRC C759FE38
Copy CRC C759FE38
Track not present in AccurateRip database
Copy OK

Track 2

Filename D:\music\Musicgate's rips\Meadows End - Meadows End - 2006 (NMC)\02 - Evening Comes.wav

Peak level 99.5 %
Track quality 99.9 %
Test CRC FA055BED
Copy CRC FA055BED
Track not present in AccurateRip database
Copy OK

Track 3

Filename D:\music\Musicgate's rips\Meadows End - Meadows End - 2006 (NMC)\03 - When I Was A Boy.wav

Peak level 100.0 %
Track quality 100.0 %
Test CRC F481E302
Copy CRC F481E302
Track not present in AccurateRip database
Copy OK

Track 4

Filename D:\music\Musicgate's rips\Meadows End - Meadows End - 2006 (NMC)\04 - Ein Gedi.wav

Peak level 99.5 %
Track quality 100.0 %
Test CRC 8F54DB1E
Copy CRC 8F54DB1E
Track not present in AccurateRip database
Copy OK

Track 5

Filename D:\music\Musicgate's rips\Meadows End - Meadows End - 2006 (NMC)\05 - Beetwen Worlds.wav

Peak level 99.6 %
Track quality 100.0 %
Test CRC 28589AB8
Copy CRC 28589AB8
Track not present in AccurateRip database
Copy OK

Track 6

Filename D:\music\Musicgate's rips\Meadows End - Meadows End - 2006 (NMC)\06 - Sometimes I Feel Like Flying.wav

Peak level 99.6 %
Track quality 100.0 %
Test CRC E3F509E9
Copy CRC E3F509E9
Track not present in AccurateRip database
Copy OK

Track 7

Filename D:\music\Musicgate's rips\Meadows End - Meadows End - 2006 (NMC)\07 - Lonely Street Lamp.wav

Peak level 99.6 %
Track quality 100.0 %
Test CRC 08BCB107
Copy CRC 08BCB107
Track not present in AccurateRip database
Copy OK

Track 8

Filename D:\music\Musicgate's rips\Meadows End - Meadows End - 2006 (NMC)\08 - Yesternight.wav

Peak level 99.6 %
Track quality 100.0 %
Test CRC 822AD77D
Copy CRC 822AD77D
Track not present in AccurateRip database
Copy OK

Track 9

Filename D:\music\Musicgate's rips\Meadows End - Meadows End - 2006 (NMC)\09 - It's Not The Sea.wav

Pre-gap length 0:00:02.17

Peak level 100.0 %
Track quality 99.9 %
Test CRC B7B873F5
Copy CRC B7B873F5
Track not present in AccurateRip database
Copy OK

Track 10

Filename D:\music\Musicgate's rips\Meadows End - Meadows End - 2006 (NMC)\10 - It's Can't To Be (Bonus).wav

Pre-gap length 0:00:01.28

Peak level 100.0 %
Track quality 100.0 %
Test CRC A6E701DE
Copy CRC A6E701DE
Track not present in AccurateRip database
Copy OK

Track 11

Filename D:\music\Musicgate's rips\Meadows End - Meadows End - 2006 (NMC)\11 - Grain (Bonus).wav

Pre-gap length 0:00:01.50

Peak level 99.7 %
Track quality 100.0 %
Test CRC 11A2C67F
Copy CRC 11A2C67F
Track not present in AccurateRip database
Copy OK

Track 12

Filename D:\music\Musicgate's rips\Meadows End - Meadows End - 2006 (NMC)\12 - Purple Dress (Bonus).wav

Pre-gap length 0:00:01.85

Peak level 76.6 %
Track quality 100.0 %
Test CRC 5A58FFF4
Copy CRC 5A58FFF4
Track not present in AccurateRip database
Copy OK

Track 13

Filename D:\music\Musicgate's rips\Meadows End - Meadows End - 2006 (NMC)\13 - Sometimes I Feel Like Flying (Bonus).wav

Peak level 91.1 %
Track quality 100.0 %
Test CRC 479CE273
Copy CRC 479CE273
Track not present in AccurateRip database
Copy OK

Track 14

Filename D:\music\Musicgate's rips\Meadows End - Meadows End - 2006 (NMC)\14 - Yesternight (Bonus).wav

Pre-gap length 0:00:01.00

Peak level 84.8 %
Track quality 100.0 %
Test CRC 145115FD
Copy CRC 145115FD
Track not present in AccurateRip database
Copy OK


None of the tracks are present in the AccurateRip database

No errors occurred

End of status report





avatar
Musicgate
Аксакал
Аксакал

Posts : 1018
Join date : 2010-09-01

View user profile

Back to top Go down

View previous topic View next topic Back to top

- Similar topics

 
Permissions in this forum:
You cannot reply to topics in this forum