Kenso(Japan) - SPARTA Naked (2009)

View previous topic View next topic Go down

Kenso(Japan) - SPARTA Naked (2009)

Post by kelia99 on Fri Oct 22, 2010 3:19 am

Kenso(Japan) - SPARTA Naked (2009)



Данный альбом, "Спарта Нэйкед", - переосмысленная версия "Спарты" (альбома, который был издан в 1989 году). "Спарта" была записана на аналоговом оборудовании, и, чтобы создать этот новый альбом, сконвертированы все треки с оригинальных лент в цифровую форму.
лидер Кензо.

Year: 2009
Origin: Japan
Genre: Jazz/Rock,Progressive,Fusion
Quality: (FLAC,cue,Log, cover,3% Recovery record)
Size: 386 mb
Uploated to: Multiupload
Говорим спасибо tatuk с rutracker.org

Track List:

1. Good days, bad days
2. Bifuka
3. The stone of the golden hair village
4. Miskatonie
5. P M
6. Gesshya senkoh
7. The shadow over Innsmouth
8. Neuro-psychoma

Bonus Tracks:

9. BIFUKA / Piano version
10. Good Days, Bad Days / 2008 Live Version

Total Time: 57:58




Line-up / Musicians :

- Kimiyoshi Matsumoto / bass (1-2-4-5-7-8)
- Masayuki Muraishi / drums (3 to 8)
- Kinichi Oguchi / keyboards
- Shunji Sægusa / bass (3-6)
- Toshihiko Sahashi / keyboards
- Yoshihisa Shimizu / guitar
- Haruhiko Yamamoto / drums (1-2)

Log EAC:
Exact Audio Copy V0.99 prebeta 5 from 4. May 2009

EAC extraction logfile from 28. September 2009, 22:00

Kenso / SPARTA Naked

Used drive : SONY DVD RW DRU-840A Adapter: 1 ID: 0

Read mode : Secure
Utilize accurate stream : Yes
Defeat audio cache : Yes
Make use of C2 pointers : No

Read offset correction : 6
Overread into Lead-In and Lead-Out : No
Fill up missing offset samples with silence : Yes
Delete leading and trailing silent blocks : No
Null samples used in CRC calculations : Yes
Used interface : Installed external ASPI interface

Used output format : User Defined Encoder
Selected bitrate : 768 kBit/s
Quality : High
Add ID3 tag : No
Command line compressor : C:\Program Files\Exact Audio Copy\FLAC\FLAC.EXE
Additional command line options : -8 -V -T "ARTIST=%a" -T "TITLE=%t" -T "ALBUM=%g" -T "DATE=%y" -T "TRACKNUMBER=%n" -T "GENRE=%m" -T "COMMENT=%e" %s -o %d


TOC of the extracted CD

Track | Start | Length | Start sector | End sector
---------------------------------------------------------
1 | 0:00.00 | 8:17.12 | 0 | 37286
2 | 8:17.12 | 5:52.63 | 37287 | 63749
3 | 14:10.00 | 3:51.13 | 63750 | 81087
4 | 18:01.13 | 4:29.31 | 81088 | 101293
5 | 22:30.44 | 7:12.07 | 101294 | 133700
6 | 29:42.51 | 6:00.05 | 133701 | 160705
7 | 35:42.56 | 6:10.15 | 160706 | 188470
8 | 41:52.71 | 0:33.61 | 188471 | 191006
9 | 42:26.57 | 7:12.25 | 191007 | 223431
10 | 49:39.07 | 8:19.43 | 223432 | 260899


Range status and errors

Selected range

Filename C:\FLAC\Kenso - SPARTA Naked.wav

Peak level 97.6 %
Range quality 100.0 %
Copy CRC 9F6DC555
Copy OK

No errors occurred


AccurateRip summary

Track 1 not present in database
Track 2 not present in database
Track 3 not present in database
Track 4 not present in database
Track 5 not present in database
Track 6 not present in database
Track 7 not present in database
Track 8 not present in database
Track 9 not present in database
Track 10 not present in database

None of the tracks are present in the AccurateRip database

End of status report

_________________
Fools all of us... Basketball
avatar
kelia99

Posts : 308
Join date : 2010-09-01
Age : 55

View user profile http://in-rock-lossless.moole.ru/

Back to top Go down

Re: Kenso(Japan) - SPARTA Naked (2009)

Post by Fusion_Brasil on Fri Oct 22, 2010 8:18 am

Very good album, kelia.

A must have fusion album!

_________________
I read Playboy for the same reason I read National Geographic: I like to see photos of places that I know I'll never visit. What a Face

Fusion_Brasil

Posts : 37
Join date : 2010-09-02

View user profile

Back to top Go down

View previous topic View next topic Back to top

- Similar topics

 
Permissions in this forum:
You cannot reply to topics in this forum