VA - Breaking the Barriers of Jazz (1997)

View previous topic View next topic Go down

VA - Breaking the Barriers of Jazz (1997)

Post by Musicgate on Fri Oct 22, 2010 1:42 am

VA - Breaking the Barriers of Jazz (1997)
The CMP Story (Volume 1) CMP Records 20th Anniversary


CMP - Exploring the frontiers of rock, jazz & world music
Вторая часть юбилейной серии, посвященной истории лейбла CMP - для любителей нестандартного джаза, смешанного с new age, world music, electronic music и экспериментами.









Жанр: jazz, fusion, crossover
Издатель (лейбл): CMP CD 2102
Номер по каталогу: 1997 Solva Screen Records
Тип: compilation
Источник (релизер): Моя коллекция, мой рип

Трэклист:
CD1
1. NEIN - FOUR - 2:59 (E.Gomez/J. Steig)
Jeremy Steig: Flute || Eddie Gomez: Bass
Produced by Kurt Renker and Jeremy Steig / Eddie Gomez
Recorded December 1978 at Electric Lady Studios, New York by Mike Frondelli and Robin Saccamano
Originally released on: Jeremy Steig & Eddie Gomez "Music for Flute and Double Bass" CMP 6

2. THE DELICACY OF YOUTH - 11:14 {D. Liebrnan)
David Liebman: Soprano Saxophone || Richard Beirach: Piano || Eddie Gomez: Bass || Charles Veal: 1st Violin || Susan Ornstein: 2nd Violin
Judy Geist: Viola || Clay Ruede: Cello || David Baker: Conductor
Produced by Kurt Renker & David Liebman
Recorded by David Baker and John Kilgore at Nola Studios, New York, September 1979
Originally released on: David Liebman "Dedications" CMP 9

3. MACHISTA - 2:46 (K. Ratzer)

Karl Ratzer: Guitar || Produced by Kurt Renker
Recorded December 1979 at Cornet Studios, Cologne by Udo Gehring
Originally released on: Karl Ratzer "Dancing On A String" CMP 13

4. DESCENT - 4:52 (С. Lauer)

Christof Lauer: Tenor-Saxophone || Joachim Kuhn: Piano || Palle Danielson: Bass || Peter Erskine: Drums
Produced by Kurt Renker & Walter Quintus with Joachim Kuhn
Recorded by Walter Quintus at Ztudio Zerkall, Germany, April 1989
Originally released on: 'Christof Lauer' CMP 39

5. PARA - 5:47 (J. Kuhn)
Joachim Kuhn: Piano || Daniel Humair: Drums || J.-F. Jenny-Clark: Bass
Produced by Kurt Renker & Walter Quintus with Joachim Kuhn
Recorded by Walter Quintus at Theatre de la Ville, Paris, November 27,1989
Originally released on: Kuhn / Humair / Jenny-Clark "Live 1989" CMP 43

6. OF ONE MIND - 6:17(Liebman/Beirach/McClure/Hart)
Quest: David Liebman: Soprano Saxophone || Richie Beirach: Piano || Ron McClure: Bass || Billy Hart: Drums
Produced by Kurt Renker & Walter Quintus
Recorded by Walter Quintus at Ztudio Zerkall, Germany, July 1990
Originally released on: Quest "Of One Mind " CMP 47

7. CHEMIN DE LA SOURCE - 4:54 (J. Kuhn)

Joachim Kuhn: Piano
Produced by Kurt Renker & Walter Quintus with Joachim Kuhn
Recorded by Walter Quintus at Ztudio Zerkall, Germany, June 1990
Originally released on: Joachim Kuhn 'Dynamics' CMP 49

8. ZERKALL - 8:26 (J.-F. Jenny-Clark / J. Kuhn)
Joachim Kuhn: Piano
Daniel Humair: Drums J.-F. Jenny-Clark: Bass WDR Big Band, conducted by Francois Jcanncau
Produced by Kurt Renker & Walter Quintus with Joachim Kuhn S Wolfgang Hirschmann
Recorded al WDR Studios, Cologne, Germany, February / September 1991 by Reinhold Nickel
Originally released on: Kuhn/Humair/ Jenny-Clark "Carambolage" CMP 58

9. HOT FRIED FISH - 3:12 (J. Clark, J. Harris, A. Jackson, K. Dennard, W. Quintus)
John Clark: French Horn || Jerome Harris: Guitar || Anthony Jackson: Contrabass Guitar || Kenwood Dennard: Drums
Produced by Kurt Renker & Walter Quintus
Recorded by Walter Quintus at Systems 2 Studios, Brooklyn, June 1992
Mixed at Ztudio Zerkall, Germany
Originally released on: John Clark "II Suono" CMP 59

10. A QUIET, NORMAL LIFE - 4:12 (R. Beirach)
Richie Beirach: piano
Produced by Kurt Renker & Walter Quintus with Richie Beirach
Recorded by Walter Quintus at Ztudio Zerkall. Germany, May 1990
Originally released on: Richie Beirach "Self Portraits" CMP 51

11. NARDIS - 4:57 (B. Evans)
Mick Goodrick: guitar || David Liebman: soprano saxophone, wooden flute, piano || Wolfgang Muthspiel: guitar, electric nylon string guitar, guitar synth, violin
Produced by Kurt Renker & Walter Quintus
Recorded by Walter Quintus at Ztudio Zerkall, Germany, March 1995
Originally released on: Goodrick/Liebman/Muthspiel "In The Same Breath" CMP 72

12. EVIDENCE - 9:27 (T. Monk)
Christof Lauer: Tenor Sax, Soprano Sax || Anthony Cox: Bass || Daniel Humair: Drums
Produced by Kurt Renker & Walter Quintus
Recorded by Walter Quintus at Ztudio Zerkall. Germany. September 1994
Originally released on: Christof Lauer "Evidence" CMP 70

13. DEAR LORD - 7:43(J. Coltrane)
Scott Cutshall: Drums, Percussion || Dave Liebman: Soprano Saxophone || Russ Lossing: Piano || Tony Marino: Bass
Produced by Cutshall, Liebman, Lossing & Marino
Recorded by Kent Heckman at Red Rock Studios, Saylorsburg, PA, 12 June 1994
Originally released on: Scott Cutshall "Zyphoid Process" CMP 76

CD 2
1. GESTALT - 11:54 (I. Carr)
Ian Carr: Trumpet, Flugelhorn, Rmi Electric Piano || Brian Smith: Tenor Sax, Soprano Sax, Percussion || Geoff Castle: Electric Piano, Mini Moog Synth. || Werimu Aata Teransiamoa Karaitiana {Bill Kristian): Bass || Roger Sellers: Drums
Produced by Kurt Renker and Ian Carr
Recorded live at Duren 6.2.77 by Dieter Dierks Mixed at Cornet Studios, Cologne 28.2. + 1.3.77 by Wolfgang Hirschmann
From Ian Carr's Nucleus "In Flagranti Delicto" CMP 1

2. SLEEP MY LOVE - 4:02 (C. Mariano)
Philip Catherine: Guitar || Charlie Mariano: Soprano Saxophone || Jasper van't Hot: Piano, Keyboards
Produced by Kurt Renker
Recorded December 78 and February 79 at Easy Sound Studios, Copenhagen, by Henrik Lund
Originally released on: Catherine/Mariano/van't Hof "Sleep My Love" CMP 5

3. DUGNAFIED - 6:25 (J. Steig)
Jeremy Steig: Flute || Eddie Gomez: Bass || Steve Gadd: Drums || Karl Ratzer: Guitar
Produced by Kurt Renker and Jeremy Steig / Eddie Gomez
Recorded December 1980 at Electric Lady Studios, New York by Mike Frondelli and Robin Saccamano
Mixed at House of Music, West Orange, by David Baker
Originally released on: Jeremy Steig & Eddie Gomez "Rain Forest" CMP 12

4. REBEL TROT - 4:40 (D. E. Johnson)
David Earle Johnson: Vocals, Congas, Timbales, Percussion || Jan Hammer: Synthesizer, Piano, Drums
Produced by Jan Hammer with David Earle Johnson
Recorded February / March 1980 at Red Gate Studios, Kent, New York by Jan Hammer
Originally released on: David Earle Johnson with Jan Hammer "Hip Address" CMP 14

5. GOD SAVES THE ELEPHANTS - 5:54 (E. Mann)
Ed Mann: Marimba, Vibes, Electronic Mallet Keyboards & Percussion || Chad Wackerman: Drums || Mike Hofman: Guitar || Doug Lunn: Bass || Bruce Fowler: Trombone || Walt Fowler: Trumpet
Produced by Kurt Renker & Walter Quintus with Ed Mann
Digitally recorded by Walter Quintus at Ztudio Zerkall, Germany, October 1988
Originally released on: Ed Mann "Get Up" CMP 38

6. UNLIKELY BEAST SLAYER - 4:54 (Fogel/Torn/Johnson/Shrieve)
Marty Fogel: Tenor-Saxophone || David Torn: Guitar || Dean Johnson: Bass || Michael Shrieve: Drums
Produced by Kurt Renker & Walter Quintus with David Torn
Digitally recorded by Walter Quintus at Ztudio Zerkall, Germany, March 1989
Originally released on: Marty Fogel "Many Bobbing Heads, at Last..." CMP 37

7. YOU CAME ALONG - 4:11 (C. Wackerman)
Chad Wackerman: Drums || Allan Holdsworth: Guitar || Jim Cox: Keyboards, Organ & Piano || Jimmy Johnson: Bass
Produced by Kurt Renker, Walter Ouintus and Chad Wackerman
Recorded by Walter Quintus at Capitol Studios, Los Angeles, June 1991
Mixed at Ztudio Zerkall, Germany
Originally released on: Chad Wackerman "Forty Reasons" CMP 48

8. EMPTY SUITCASE - 2:54 (Wackerman/Cox/Johnson/Holdsworth/Fowler)
Chad Wackerman: Drums || Allan Holdsworth: Guitar || Walt Fowler: Trumpet || Jim Cox: Piano || Jimmy Johnson: Bass
Produced by Chad Wackerman with Kurt Renker & Walter Quintus
Recorded by Judy Clapp at Capitol Studios, Hollywood, June 1993
Mixed by Walter Quintus at Ztudio Zerkall, Germany
Originally released on: Chad Wackerman "The View" CMP 64

9. THE OTHER TUNE - 7:39 (J. Zawinul)

Trilok Gurtu: Drums, Tabla, Percussion || Joe Zawinul: Keyboards, Keyboard Bass, Vocoder
Produced by Joe Zawinul & Trilok Gurtu
Executive Producer: Kurt Renker
Recorded by Walter Quintus at Ztudio Zerkall, Germany, May / June 1993
Originally released on: Trilok Gurtu "Crazy Saints" CMP 66

10. LIVING WITH THE LAW - 4:03 (Chris Whitley)
Michael Shrieve: Drums || Bill Frisell: Guitar || Wayne Horvitz: Organ
Produced by Kurt Renker
Recorded by Don Gilmore at Bob Lang Studios, Seattle. November 1993
Mixed by Walter Quintus at Ztudio Zerkall. Germany
Originally released on: Michael Shrieve "Fascination" CMP 67

11. STELLAR RAYS - 3:22 (J. Hellborg / S. Lane)

Michael Shrieve: Drums || Shawn Lane: Guitar, Voice || Jonas Hellborg: Bass
Produced by Kurt Renker & Michael Shrieve
Recorded by Cedric Beatty at Ztudio Zerkall, Germany, May 1995
Mixed by Walter Quintus
Originally released on: Michael Shrieve "Two Doors" CMP 74

"Лог создания рипа":
Аудио кодек: FLAC (*.flac)
Тип рипа: (tracks + .cue)
Корректность рипа: EAC ripped, correct read offset, test and copy
Битрейт аудио: lossless
Наличие сканов в содержимом раздачи: full scans, png, 300 dpi

EAC extraction logfile from 22. August 2007, 19:01 for CD
Various / Breaking The Barriers Of Jazz (Disc 1)

Used drive : Optiarc DVD RW AD-5170A Adapter: 1 ID: 0
Read mode : Secure with NO C2, accurate stream, disable cache
Read offset correction : 48
Overread into Lead-In and Lead-Out : No

Used output format : D:\tools\FLAC\flac.exe (User Defined Encoder)
128 kBit/s
Additional command line options : -V -8 -T "artist=%a" -T "title=%t" -T "album=%g" -T "date=%y" -T "tracknumber=%n" -T "genre=%m" %s

Other options :
Fill up missing offset samples with silence : Yes
Delete leading and trailing silent blocks : No
Native Win32 interface for Win NT & 2000


Track 1
Filename D:\0\VA - Breaking the Barriers of Jazz (1997) [FLAC]\CD 1\01 - Jeremy Steig & Eddie Gomez - Nein-Four.wav

Pre-gap length 0:00:02.00

Peak level 76.8 %
Track quality 100.0 %
Test CRC 1894350C
Copy CRC 1894350C
Copy OK

Track 2
Filename D:\0\VA - Breaking the Barriers of Jazz (1997) [FLAC]\CD 1\02 - David Liebman - The Delicacy Of Youth.wav

Pre-gap length 0:00:01.13

Peak level 97.9 %
Track quality 99.9 %
Test CRC B6BF6E3D
Copy CRC B6BF6E3D
Copy OK

Track 3
Filename D:\0\VA - Breaking the Barriers of Jazz (1997) [FLAC]\CD 1\03 - Karl Ratzer - Machista.wav

Pre-gap length 0:00:03.53

Peak level 61.0 %
Track quality 100.0 %
Test CRC 12FB5CDB
Copy CRC 12FB5CDB
Copy OK

Track 4
Filename D:\0\VA - Breaking the Barriers of Jazz (1997) [FLAC]\CD 1\04 - Christof Lauer - Descent.wav

Pre-gap length 0:00:01.20

Peak level 98.0 %
Track quality 100.0 %
Test CRC BC8E6D3F
Copy CRC BC8E6D3F
Copy OK

Track 5
Filename D:\0\VA - Breaking the Barriers of Jazz (1997) [FLAC]\CD 1\05 - Kuhn & Humair & Jenny-Clark - Para.wav

Pre-gap length 0:00:02.09

Peak level 98.0 %
Track quality 100.0 %
Test CRC 322A8F53
Copy CRC 322A8F53
Copy OK

Track 6
Filename D:\0\VA - Breaking the Barriers of Jazz (1997) [FLAC]\CD 1\06 - Quest - Of One Mind.wav

Pre-gap length 0:00:02.10

Peak level 97.9 %
Track quality 99.9 %
Test CRC 35614F79
Copy CRC 35614F79
Copy OK

Track 7
Filename D:\0\VA - Breaking the Barriers of Jazz (1997) [FLAC]\CD 1\07 - Joachim Kuhn - Chemin De La Source.wav

Pre-gap length 0:00:01.29

Peak level 81.0 %
Track quality 99.9 %
Test CRC 9F757E7D
Copy CRC 9F757E7D
Copy OK

Track 8
Filename D:\0\VA - Breaking the Barriers of Jazz (1997) [FLAC]\CD 1\08 - Kuhn & Humair & Jenny-Clark - Zerkall.wav

Pre-gap length 0:00:00.53

Peak level 98.0 %
Track quality 99.9 %
Test CRC 886A8361
Copy CRC 886A8361
Copy OK

Track 9
Filename D:\0\VA - Breaking the Barriers of Jazz (1997) [FLAC]\CD 1\09 - John Clark - Hot Fried Fish.wav

Pre-gap length 0:00:00.86

Peak level 98.0 %
Track quality 100.0 %
Test CRC 3126D3FF
Copy CRC 3126D3FF
Copy OK

Track 10
Filename D:\0\VA - Breaking the Barriers of Jazz (1997) [FLAC]\CD 1\10 - Richie Beirach - A Quiet, Normal Life.wav

Pre-gap length 0:00:01.33

Peak level 98.0 %
Track quality 100.0 %
Test CRC 1ECA5374
Copy CRC 1ECA5374
Copy OK

Track 11
Filename D:\0\VA - Breaking the Barriers of Jazz (1997) [FLAC]\CD 1\11 - Goodrick & Liebman & Muthspiel - Nardis.wav

Pre-gap length 0:00:00.66

Peak level 97.9 %
Track quality 99.9 %
Test CRC 647F6774
Copy CRC 647F6774
Copy OK

Track 12
Filename D:\0\VA - Breaking the Barriers of Jazz (1997) [FLAC]\CD 1\12 - Christof Lauer - Evidence.wav

Pre-gap length 0:00:01.22

Peak level 98.0 %
Track quality 100.0 %
Test CRC 9E45B9B6
Copy CRC 9E45B9B6
Copy OK

Track 13
Filename D:\0\VA - Breaking the Barriers of Jazz (1997) [FLAC]\CD 1\13 - Scott Cutshall - Dear Lord.wav

Pre-gap length 0:00:01.73

Peak level 97.9 %
Track quality 99.9 %
Test CRC 27231931
Copy CRC 27231931
Copy OK

No errors occured


End of status report

EAC extraction logfile from 22. August 2007, 18:13 for CD
Various / Breaking The Barriers Of Jazz (Disc 2)

Used drive : Optiarc DVD RW AD-5170A Adapter: 1 ID: 0
Read mode : Secure with NO C2, accurate stream, disable cache
Read offset correction : 48
Overread into Lead-In and Lead-Out : No

Used output format : D:\tools\FLAC\flac.exe (User Defined Encoder)
128 kBit/s
Additional command line options : -V -8 -T "artist=%a" -T "title=%t" -T "album=%g" -T "date=%y" -T "tracknumber=%n" -T "genre=%m" %s

Other options :
Fill up missing offset samples with silence : Yes
Delete leading and trailing silent blocks : No
Native Win32 interface for Win NT & 2000


Track 1
Filename D:\0\VA - Breaking the Barriers of Jazz\CD 2\01 - Ian Carr's Nucleus - Gestalt.wav

Pre-gap length 0:00:02.00

Peak level 97.9 %
Track quality 100.0 %
Test CRC C2D665A8
Copy CRC C2D665A8
Copy OK

Track 2
Filename D:\0\VA - Breaking the Barriers of Jazz\CD 2\02 - Catherine, Mariano, Van't Hof - Sleep My Love.wav

Pre-gap length 0:00:01.50

Peak level 83.9 %
Track quality 100.0 %
Test CRC CA1EBC92
Copy CRC CA1EBC92
Copy OK

Track 3
Filename D:\0\VA - Breaking the Barriers of Jazz\CD 2\03 - Jeremy Steig & Eddie Gomez - Dugnafied.wav

Pre-gap length 0:00:02.60

Peak level 97.9 %
Track quality 100.0 %
Test CRC FB731D4E
Copy CRC FB731D4E
Copy OK

Track 4
Filename D:\0\VA - Breaking the Barriers of Jazz\CD 2\04 - David Earle Johnson & Jan Hammer - Rebel Trot.wav

Pre-gap length 0:00:00.93

Peak level 97.9 %
Track quality 100.0 %
Test CRC B73BCA4B
Copy CRC B73BCA4B
Copy OK

Track 5
Filename D:\0\VA - Breaking the Barriers of Jazz\CD 2\05 - Ed Mann - God Saves The Elephants.wav

Pre-gap length 0:00:00.73

Peak level 98.0 %
Track quality 100.0 %
Test CRC 076F8374
Copy CRC 076F8374
Copy OK

Track 6
Filename D:\0\VA - Breaking the Barriers of Jazz\CD 2\06 - Marty Fogel - Unlikely Beast Slayer.wav

Pre-gap length 0:00:00.49

Peak level 98.0 %
Track quality 99.9 %
Test CRC 7E975520
Copy CRC 7E975520
Copy OK

Track 7
Filename D:\0\VA - Breaking the Barriers of Jazz\CD 2\07 - Chad Wackermann - You Come Along.wav

Pre-gap length 0:00:00.80

Peak level 98.0 %
Track quality 99.9 %
Test CRC C35EAED6
Copy CRC C35EAED6
Copy OK

Track 8
Filename D:\0\VA - Breaking the Barriers of Jazz\CD 2\08 - Chad Wackermann - Empty Suitcase.wav

Pre-gap length 0:00:00.02

Peak level 98.0 %
Track quality 99.9 %
Test CRC FA0F21CD
Copy CRC FA0F21CD
Copy OK

Track 9
Filename D:\0\VA - Breaking the Barriers of Jazz\CD 2\09 - Trilok Gurtu - The Other Tune.wav

Pre-gap length 0:00:00.33

Peak level 97.9 %
Track quality 100.0 %
Test CRC E63ED15A
Copy CRC E63ED15A
Copy OK

Track 10
Filename D:\0\VA - Breaking the Barriers of Jazz\CD 2\10 - Michael Shrieve - Living With The Law.wav

Pre-gap length 0:00:01.46

Peak level 94.7 %
Track quality 99.9 %
Test CRC 96938734
Copy CRC 96938734
Copy OK

Track 11
Filename D:\0\VA - Breaking the Barriers of Jazz\CD 2\11 - Michael Shrieve - Stellar Rays.wav

Pre-gap length 0:00:01.30

Peak level 97.9 %
Track quality 99.8 %
Test CRC 86EB765A
Copy CRC 86EB765A
Copy OK

Track 12
Filename D:\0\VA - Breaking the Barriers of Jazz\CD 2\12 - Trilok Gurtu - Siddhi.wav

Pre-gap length 0:00:02.06

Peak level 98.0 %
Track quality 100.0 %
Test CRC 162D72A4
Copy CRC 162D72A4
Copy OK

No errors occured


End of status report


avatar
Musicgate
Аксакал
Аксакал

Posts : 1018
Join date : 2010-09-01

View user profile

Back to top Go down

View previous topic View next topic Back to top

- Similar topics

 
Permissions in this forum:
You cannot reply to topics in this forum