Scott Joplin, Pee Wee Russell

View previous topic View next topic Go down

Scott Joplin, Pee Wee Russell

Post by Musicgate on Thu Oct 21, 2010 4:59 am



Scott Joplin, Pee Wee Russell - Take Me To The Land Of Jazz (2CD) - {The Cradle Of Jazz. History}

Жанр: Ragtime, Early Jazz, Dixieland
Дата записи: 1898-1917, 1938-1945
Год издания: Unknown
Страна - производитель диска: Germany
Издатель (лейбл): Trumpets Of Jericho Ltd.
Номер по каталогу: 20.3018-HI
Тип: compilation
Продолжительность: 2:19:20
Источник (релизер): коллекция Л Рендера, мой рип

Трэклист:
CD1 - Scott Joplin
1. Original Rags - 3:02 (1898)
2. The Entertainer - 3:05 (1902)
3. Sun Flower Slow Drag (Joblin - Bayden) - 3:07 (1901)
4. Maple Leaf Rag (Joblin - Russell) - 3:05 (1899)
5. Elite Sincopations - 3:13 (1902)
6. Cleopha - 3:15 (1902)
7. Something Doing (Joblin - Hayden) - 2:45 (1903)
8. The Chrisanthemum - 3:50 (1904)
9. Leola - 3:22 (1905)
10. Eugenia - 3:34 (1906)
11. Lily Queen (Joplin-Marshall) - 3:24 (1907)
12. Heliotrope Bouquet (Joplin - Chauvin) - 3:27 (1907)
13. Pineapple Rag - 4:59 (1908)
14. Paragon Rag - 3:39 (1909)
15. Euphonic Sounds - 2:53 (1909)
16. Country Club - 3:12 (1910)
17. Stoptime Rag - 2:35 (1912)
18. Scott Joplin's New Rag - 3:29 (1912)
19. Areal Slow Rag - 3:50 (1913)
20. Reflection Rag - 3:54 (1917)

CD2 - Pee Wee Russell
1. Love Is Just Around The Corner (Robin - Gensler) - 3:08
2. Embraceable You (I. & G. Gershwin) - 4:04
3. Serenade To A Shylock (Russell) - 4:36
4. Serenade To A Shylock - alternate - 4:35
5. Sunday (Conn - Styne - Krueger - Miller) - 3:01
6. None Of My Jelly Roll (S. Williams - С Williams) - 3:00
7. Georgia Grind (S.Williams - Allen) - 2:58
8. Jig Walk (Ellington - Trent) - 2:44
9. Deuces Wild (Singleton - 2:58
10. The Last Time I Sow Chicago (Russell) - 2:57
11. About Face (Singleton) - 2:50
12. Don't Leave Me, Daddy (Verges) - 2:38
13. Rosetta (Hines-Wood) - 3:16
14. Squeeze Me (Waller - Williams) - 2:32
15. Take Me To The Land Of Jazz (Leslie - Wendling - Kalmar) 3:05
16. Тaке Me To The Land Of Jazz - alternate - 3:04
17. Rose Of Washington Square (McDonald - Hanley) - 2:42
18. Rose Of Washington Square - alternate - 2:46
19. Keepin' Out Of Mischief Now (Razaf - Waller) - 3:07
20. D. A. Blues (Gabler) - 3:50
21. D. A. Blues - alternate - 3:28
22. Wailin' D. A. Blues (Gabler) - 3:59

Состав, даты, города:

Love Is Just Around The Corner
January 17. 1938
Bobby Hackett (cn), George Brunies (tb), Pee Wee Russell (cl), Bud Freeman (ts ), Jess Stacy (p), Eddie Condon (g), Artie Shapiro (b), George Wettling (d).

Embraceable You
Serenade To A Shylock
Serenade To A Shylock-alternate

November 12. 1938
Bobby Hackett (cn), Jack Teagarden (tb), Pee Wee Russell (cl), Bud Freeman (ts ), Jess Stacy (p), Eddie Condon (g), Artie Shapiro (b), George Wettling (d).

Sunday
November 12. 1938
Bobby Hackett (cn), Vernon Brown (tb), Pee Wee Russell (cl), Bud Freeman (ts ), Joey Bushkin (p), Eddie Condon (g), Artie Shapiro (b), Lionel Hampton (d).

None Of My Jelly Roll
November 30. 1939
Max Kaminsky (cn), Brad Gowans (tb), Pee Wee Russell (cl), Joey Bushkin (p), Eddie Condon (g), Artie Shapiro (b), George Wettling (d).

Georgia Grind
November 14. 1940
Marty Marsala (tp), George Brumes (tb), Pee Wee Russell (cl), Fats Waller (p), Eddie Condon (g), Artie Shapiro (b), George Wettling (d).

Jig Walk
Deuces Wild
The Last Time I Saw Chicago
About Face

March 25. 1941
Pee Wee Russell (cl), Joe Sullivan (p), Zutty Singleton (d).

Don't Leave Me, Daddy
January 28. 1942
Max Kaminsky (cn), Brad Gowans (tb), Pee Wee Russell (cl), Joe Sullivan (p), Eddie Condon (g), Al Morgan (b), George Wettling (d).

Rosetta
September 27. 1944
Muggsy Spanier (cn), Miff Mole (tb), Pee Wee Russell (cl), Boomie Richman (ts), Gene Schroeder (p), Eddie Condon (g), Bob Haggart (b), George Wettling (d).

Squeeze Me
January 19, 1945
Wild Bill Davison (cn), Lou McGarrity (tb), Pee Wee Rusell (cl), Dick Cary (p), Eddie Condon (g), Bob Casey (b), Danny Alvin (d).

Take Me To The Land Of Jazz
Take Me To The Land Of Jazz - alternate
Rose Of Washington Square
Rose Of Washington Square - alternate
Keepin' Out Of Mischief Now
D.A. Blues
D.A. Blues - alternate
Wailin' D.A. Blues

September 30. 1944
Pee Wee Russell (cl), Jess Stacy (p), Sid Weiss (b), George Wettling (d).[/spoiler]

"Несколько слов на английском":
Scott Joplin
Scott Joplin was born on the 24th November, 1868 in Texarkana, Texas. His father was a coloured slave, who was first freed after his son's birth. Joplin played violin already as a child, and received piano lessons regularly from the age of 7 from a German piano teacher.
He was already performing as a 15 year old as a bar pianist in St. Louis, where he stayed up until 1893. Joplin led a band in the same year at the World Exhibition in Chicago, and then moved to the legendary ragtime town of Sedalia in Missouri. Here he played regularly at the Maple Leaf Club, and he studied the theory of music at a Methodist music college as of 1896.
Joplin got to know in 1899 the publisher John Stark, who bought Joplin's well-known composition "Maple Leaf Rag" off him, and who also brought out other compositions. Joplin's releases were very successful, even in those days. The sheet music of "Maple Leaf Rag" was sold over 75,000 times in the first year.
With his other compositions Joplin was simply way too far ahead of his time. His "Ragtime Dance Ballet" and the opera "A Guest Of Honor", whose manuscript the composer himself later destroyed, were public flops, which frustrated Joplin deeply.
He was however able to live comfortably and financially secure as a freelance composer in St. Louis up until 1905. There then followed the death of his daughter and divorce from his wife. Joplin moved first to Chicago, then to New York, where he once again married. Joplin was already suffering from syphillis at this time, which at that time could not be treated.
His illness influenced his creative activities. He had difficulties making music and he composed very little. One of his last works was the opera "Treemonisha", which he had to publish himself, and whose performance he had to finance. Joplin died on the 1 st April, 1917 in New York.
The "King Of Ragtime", whose great influence on the further development of jazz is undisputed, received worthy recognition posthumously. His collected works were released in the Seventies and he was given a Pulitzer Prize for "Treemonisha". His music became world famous through the film "The Sting".

Pee Wee Russell
Charles Ellsworth Russell, also known as Pee Wee Russell, was born on the 27th March, 1906 in St. Louis. The talented Pee Wee, who had American Native forefathers, began his musical career at an early age. He was impressed by Larry Shields and Alcide Nunez, and took clarinet lessons, appeared at first with his father, and eventually with the well-known Red Nichols.
Russell went to the Western Military Academy between 1920 and 1921, and then went on to the University of Missouri. His first professional experience as a musician was gathered on a river steamboat. He played with Herbert Berger in Mexico between 1923 and 1924, and played in Texas in Peck Kelley's band.
In the middle of the Twenties Russell played in Chicago with Bix Beiderbecke and Frank Trumbauer. He eventually moved to New York in 1927, where he made a name for himself in Red Nichol's "Five Pennies". Russell, who worked as a freelance musician, recorded many outstanding records, especially in the Thirties and Forties: He played with Billy Banks in 1932, with Louis Prima between 1935 and 1937, later with Bobby Hackett and Bud Freeman, and Eddie Condon as of 1938.
Russell worked, along with many other bands,
in the Forties with Lee Wiley, Wild Bill Davison, Georg Brunis, Hot Lips Page and Muggsy Spanier. His work with Eddie Condon was especially productive, and had a long-term character. Pee Wee stayed in the close working circle of Eddie Condon for almost 30 years. His recordings with Condon in 1938 had made him into a star of traditional Chicago jazz. On the grounds of his expressive and unpredictable style he is regarded to this very day as being unique in the history of jazz.
Russell had to take diverse ill-health related breaks in the course of his musical career. His excessive alcohol consumption, which had almost killed him in 1950, also contributed to this. He managed however a remarkable comeback, took part at jazz festivals and toured throughout Europe, Australia, New Zealand and Japan. Russell also turned to Modern Jazz in the Sixties, and took over compositions from Thelonious Monk and Ornette Coleman. He began with abstract painting on the advice of his wife Mary, also proved here that he had great talent, and enjoyed an enormous amount of success. When Mary died in 1967, Pee Wee once again became a victim of his alcohol abuse, and his state of health declined rapidly. He died 2 years later, on the 15th February, 1969 in Alexandria, Virginia.

"Лог создания рипа":

Exact Audio Copy V0.99 prebeta 4 from 23. January 2008

EAC extraction logfile from 16. September 2010, 12:32

Scott Joplin / take me to the land of jazz

Used drive : HL-DT-STDVD-RAM GH22NP20 Adapter: 0 ID: 0

Read mode : Secure
Utilize accurate stream : Yes
Defeat audio cache : Yes
Make use of C2 pointers : No

Read offset correction : 102
Overread into Lead-In and Lead-Out : No
Fill up missing offset samples with silence : Yes
Delete leading and trailing silent blocks : No
Null samples used in CRC calculations : Yes
Used interface : Installed external ASPI interface
Gap handling : Appended to previous track

Used output format : User Defined Encoder
Selected bitrate : 320 kBit/s
Quality : High
Add ID3 tag : No
Command line compressor : C:\Program Files\Exact Audio Copy\Flac\flac.exe
Additional command line options : -V -8 -T "artist=%a" -T "title=%t" -T "album=%g" -T "date=%y" -T "tracknumber=%n" -T "genre=%m" %s


TOC of the extracted CD

Track | Start | Length | Start sector | End sector
---------------------------------------------------------
1 | 0:00.00 | 3:02.48 | 0 | 13697
2 | 3:02.48 | 3:05.66 | 13698 | 27638
3 | 6:08.39 | 3:07.48 | 27639 | 41711
4 | 9:16.12 | 3:05.50 | 41712 | 55636
5 | 12:21.62 | 3:13.20 | 55637 | 70131
6 | 15:35.07 | 3:15.31 | 70132 | 84787
7 | 18:50.38 | 2:45.20 | 84788 | 97182
8 | 21:35.58 | 3:50.43 | 97183 | 114475
9 | 25:26.26 | 3:22.02 | 114476 | 129627
10 | 28:48.28 | 3:34.61 | 129628 | 145738
11 | 32:23.14 | 3:24.70 | 145739 | 161108
12 | 35:48.09 | 3:27.24 | 161109 | 176657
13 | 39:15.33 | 4:59.44 | 176658 | 199126
14 | 44:15.02 | 3:39.15 | 199127 | 215566
15 | 47:54.17 | 2:53.69 | 215567 | 228610
16 | 50:48.11 | 3:12.09 | 228611 | 243019
17 | 54:00.20 | 2:35.66 | 243020 | 254710
18 | 56:36.11 | 3:29.66 | 254711 | 270451
19 | 60:06.02 | 3:50.50 | 270452 | 287751
20 | 63:56.52 | 3:54.36 | 287752 | 305337


Track 1

Filename D:\music\Musicgate's rips\Scott Joplin, Pee Wee Russell - Take Me To The Land Of Jazz (2CD) - {The Cradle Of Jazz. History}\CD1 - Scott Joplin\01 - Original Rags.wav

Pre-gap length 0:00:02.00

Peak level 63.8 %
Track quality 99.9 %
Test CRC C05223D4
Copy CRC C05223D4
Track not present in AccurateRip database
Copy OK

Track 2

Filename D:\music\Musicgate's rips\Scott Joplin, Pee Wee Russell - Take Me To The Land Of Jazz (2CD) - {The Cradle Of Jazz. History}\CD1 - Scott Joplin\02 - The Entertainer.wav

Pre-gap length 0:00:01.60

Peak level 57.9 %
Track quality 100.0 %
Test CRC C7CFF841
Copy CRC C7CFF841
Track not present in AccurateRip database
Copy OK

Track 3

Filename D:\music\Musicgate's rips\Scott Joplin, Pee Wee Russell - Take Me To The Land Of Jazz (2CD) - {The Cradle Of Jazz. History}\CD1 - Scott Joplin\03 - Sun Flower Slow Drag.wav

Pre-gap length 0:00:01.60

Peak level 62.9 %
Track quality 99.9 %
Test CRC 84561400
Copy CRC 84561400
Track not present in AccurateRip database
Copy OK

Track 4

Filename D:\music\Musicgate's rips\Scott Joplin, Pee Wee Russell - Take Me To The Land Of Jazz (2CD) - {The Cradle Of Jazz. History}\CD1 - Scott Joplin\04 - Maple Leaf Rag.wav

Pre-gap length 0:00:01.60

Peak level 64.5 %
Track quality 100.0 %
Test CRC 2F95CBA4
Copy CRC 2F95CBA4
Track not present in AccurateRip database
Copy OK

Track 5

Filename D:\music\Musicgate's rips\Scott Joplin, Pee Wee Russell - Take Me To The Land Of Jazz (2CD) - {The Cradle Of Jazz. History}\CD1 - Scott Joplin\05 - Elite Syncopations.wav

Pre-gap length 0:00:01.60

Peak level 69.9 %
Track quality 99.9 %
Test CRC 0C5B05CB
Copy CRC 0C5B05CB
Track not present in AccurateRip database
Copy OK

Track 6

Filename D:\music\Musicgate's rips\Scott Joplin, Pee Wee Russell - Take Me To The Land Of Jazz (2CD) - {The Cradle Of Jazz. History}\CD1 - Scott Joplin\06 - Cleopha.wav

Pre-gap length 0:00:01.60

Peak level 77.1 %
Track quality 100.0 %
Test CRC 1A7934F0
Copy CRC 1A7934F0
Track not present in AccurateRip database
Copy OK

Track 7

Filename D:\music\Musicgate's rips\Scott Joplin, Pee Wee Russell - Take Me To The Land Of Jazz (2CD) - {The Cradle Of Jazz. History}\CD1 - Scott Joplin\07 - Something Doing.wav

Pre-gap length 0:00:01.60

Peak level 59.2 %
Track quality 100.0 %
Test CRC 085C918F
Copy CRC 085C918F
Track not present in AccurateRip database
Copy OK

Track 8

Filename D:\music\Musicgate's rips\Scott Joplin, Pee Wee Russell - Take Me To The Land Of Jazz (2CD) - {The Cradle Of Jazz. History}\CD1 - Scott Joplin\08 - The Chrisanthemum.wav

Pre-gap length 0:00:01.60

Peak level 73.4 %
Track quality 100.0 %
Test CRC D6331971
Copy CRC D6331971
Track not present in AccurateRip database
Copy OK

Track 9

Filename D:\music\Musicgate's rips\Scott Joplin, Pee Wee Russell - Take Me To The Land Of Jazz (2CD) - {The Cradle Of Jazz. History}\CD1 - Scott Joplin\09 - Leola.wav

Pre-gap length 0:00:01.60

Peak level 70.8 %
Track quality 100.0 %
Test CRC 0FC7AFF8
Copy CRC 0FC7AFF8
Track not present in AccurateRip database
Copy OK

Track 10

Filename D:\music\Musicgate's rips\Scott Joplin, Pee Wee Russell - Take Me To The Land Of Jazz (2CD) - {The Cradle Of Jazz. History}\CD1 - Scott Joplin\10 - Eugenia.wav

Pre-gap length 0:00:01.60

Peak level 71.1 %
Track quality 100.0 %
Test CRC 79C0FE15
Copy CRC 79C0FE15
Track not present in AccurateRip database
Copy OK

Track 11

Filename D:\music\Musicgate's rips\Scott Joplin, Pee Wee Russell - Take Me To The Land Of Jazz (2CD) - {The Cradle Of Jazz. History}\CD1 - Scott Joplin\11 - Lily Queen.wav

Pre-gap length 0:00:01.60

Peak level 72.9 %
Track quality 100.0 %
Test CRC A06D0C13
Copy CRC A06D0C13
Track not present in AccurateRip database
Copy OK

Track 12

Filename D:\music\Musicgate's rips\Scott Joplin, Pee Wee Russell - Take Me To The Land Of Jazz (2CD) - {The Cradle Of Jazz. History}\CD1 - Scott Joplin\12 - Heliotrope Bouquet.wav

Pre-gap length 0:00:01.60

Peak level 77.7 %
Track quality 100.0 %
Test CRC E994244A
Copy CRC E994244A
Track not present in AccurateRip database
Copy OK

Track 13

Filename D:\music\Musicgate's rips\Scott Joplin, Pee Wee Russell - Take Me To The Land Of Jazz (2CD) - {The Cradle Of Jazz. History}\CD1 - Scott Joplin\13 - Pineapple Rag.wav

Pre-gap length 0:00:01.60

Peak level 62.1 %
Track quality 100.0 %
Test CRC 8DF49414
Copy CRC 8DF49414
Track not present in AccurateRip database
Copy OK

Track 14

Filename D:\music\Musicgate's rips\Scott Joplin, Pee Wee Russell - Take Me To The Land Of Jazz (2CD) - {The Cradle Of Jazz. History}\CD1 - Scott Joplin\14 - Paragon Rag.wav

Pre-gap length 0:00:01.60

Peak level 73.6 %
Track quality 100.0 %
Test CRC 5FFB6825
Copy CRC 5FFB6825
Track not present in AccurateRip database
Copy OK

Track 15

Filename D:\music\Musicgate's rips\Scott Joplin, Pee Wee Russell - Take Me To The Land Of Jazz (2CD) - {The Cradle Of Jazz. History}\CD1 - Scott Joplin\15 - Euphonic Sounds.wav

Pre-gap length 0:00:01.60

Peak level 69.2 %
Track quality 100.0 %
Test CRC E005E8DD
Copy CRC E005E8DD
Track not present in AccurateRip database
Copy OK

Track 16

Filename D:\music\Musicgate's rips\Scott Joplin, Pee Wee Russell - Take Me To The Land Of Jazz (2CD) - {The Cradle Of Jazz. History}\CD1 - Scott Joplin\16 - Country Club.wav

Pre-gap length 0:00:01.60

Peak level 67.5 %
Track quality 100.0 %
Test CRC 07B870BD
Copy CRC 07B870BD
Track not present in AccurateRip database
Copy OK

Track 17

Filename D:\music\Musicgate's rips\Scott Joplin, Pee Wee Russell - Take Me To The Land Of Jazz (2CD) - {The Cradle Of Jazz. History}\CD1 - Scott Joplin\17 - Stoptime Rag.wav

Pre-gap length 0:00:01.60

Peak level 62.6 %
Track quality 100.0 %
Test CRC D7BC63D7
Copy CRC D7BC63D7
Track not present in AccurateRip database
Copy OK

Track 18

Filename D:\music\Musicgate's rips\Scott Joplin, Pee Wee Russell - Take Me To The Land Of Jazz (2CD) - {The Cradle Of Jazz. History}\CD1 - Scott Joplin\18 - Sott Joplin's New Rag.wav

Pre-gap length 0:00:01.60

Peak level 76.9 %
Track quality 100.0 %
Test CRC 2E8B234D
Copy CRC 2E8B234D
Track not present in AccurateRip database
Copy OK

Track 19

Filename D:\music\Musicgate's rips\Scott Joplin, Pee Wee Russell - Take Me To The Land Of Jazz (2CD) - {The Cradle Of Jazz. History}\CD1 - Scott Joplin\19 - Areal Slow Rag.wav

Pre-gap length 0:00:01.60

Peak level 76.6 %
Track quality 100.0 %
Test CRC 86E7BF71
Copy CRC 86E7BF71
Track not present in AccurateRip database
Copy OK

Track 20

Filename D:\music\Musicgate's rips\Scott Joplin, Pee Wee Russell - Take Me To The Land Of Jazz (2CD) - {The Cradle Of Jazz. History}\CD1 - Scott Joplin\20 - Reflection Rag.wav

Pre-gap length 0:00:01.60

Peak level 78.2 %
Track quality 100.0 %
Test CRC 7CD3F1A1
Copy CRC 7CD3F1A1
Track not present in AccurateRip database
Copy OK


None of the tracks are present in the AccurateRip database

No errors occurred

End of status report

Exact Audio Copy V0.99 prebeta 4 from 23. January 2008

EAC extraction logfile from 16. September 2010, 10:33

Pee Wee Russell / Take Me To the Land of Jazz (cd2 of 2)

Used drive : HL-DT-STDVD-RAM GH22NP20 Adapter: 0 ID: 0

Read mode : Secure
Utilize accurate stream : Yes
Defeat audio cache : Yes
Make use of C2 pointers : No

Read offset correction : 102
Overread into Lead-In and Lead-Out : No
Fill up missing offset samples with silence : Yes
Delete leading and trailing silent blocks : No
Null samples used in CRC calculations : Yes
Used interface : Installed external ASPI interface
Gap handling : Appended to previous track

Used output format : User Defined Encoder
Selected bitrate : 320 kBit/s
Quality : High
Add ID3 tag : No
Command line compressor : C:\Program Files\Exact Audio Copy\Flac\flac.exe
Additional command line options : -V -8 -T "artist=%a" -T "title=%t" -T "album=%g" -T "date=%y" -T "tracknumber=%n" -T "genre=%m" %s


TOC of the extracted CD

Track | Start | Length | Start sector | End sector
---------------------------------------------------------
1 | 0:00.00 | 3:08.59 | 0 | 14158
2 | 3:08.59 | 4:04.61 | 14159 | 32519
3 | 7:13.45 | 4:36.69 | 32520 | 53288
4 | 11:50.39 | 4:35.37 | 53289 | 73950
5 | 16:26.01 | 3:01.69 | 73951 | 87594
6 | 19:27.70 | 3:00.26 | 87595 | 101120
7 | 22:28.21 | 2:58.37 | 101121 | 114507
8 | 25:26.58 | 2:44.24 | 114508 | 126831
9 | 28:11.07 | 2:58.26 | 126832 | 140207
10 | 31:09.33 | 2:57.57 | 140208 | 153539
11 | 34:07.15 | 2:50.46 | 153540 | 166335
12 | 36:57.61 | 2:38.07 | 166336 | 178192
13 | 39:35.68 | 3:16.36 | 178193 | 192928
14 | 42:52.29 | 2:32.44 | 192929 | 204372
15 | 45:24.73 | 3:05.19 | 204373 | 218266
16 | 48:30.17 | 3:04.42 | 218267 | 232108
17 | 51:34.59 | 2:42.11 | 232109 | 244269
18 | 54:16.70 | 2:46.67 | 244270 | 256786
19 | 57:03.62 | 3:07.34 | 256787 | 270845
20 | 60:11.21 | 3:50.39 | 270846 | 288134
21 | 64:01.60 | 3:28.51 | 288135 | 303785
22 | 67:30.36 | 3:59.12 | 303786 | 321722


Track 1

Filename D:\music\Musicgate's rips\Scott Joplin, Pee Wee Russell - Take Me To The Land Of Jazz (2CD) - {The Cradle Of Jazz. History}\CD2 - Pee Wee Russell\01 - Love Is Just Around The Corner.wav

Pre-gap length 0:00:02.00

Peak level 96.6 %
Track quality 100.0 %
Test CRC D3513400
Copy CRC D3513400
Accurately ripped (confidence 1) [D7DAE4AC]
Copy OK

Track 2

Filename D:\music\Musicgate's rips\Scott Joplin, Pee Wee Russell - Take Me To The Land Of Jazz (2CD) - {The Cradle Of Jazz. History}\CD2 - Pee Wee Russell\02 - Embraceable You.wav

Peak level 100.0 %
Track quality 100.0 %
Test CRC 8D4891EA
Copy CRC 8D4891EA
Accurately ripped (confidence 1) [930C9C59]
Copy OK

Track 3

Filename D:\music\Musicgate's rips\Scott Joplin, Pee Wee Russell - Take Me To The Land Of Jazz (2CD) - {The Cradle Of Jazz. History}\CD2 - Pee Wee Russell\03 - Serenade To A Shylock.wav

Peak level 96.1 %
Track quality 99.9 %
Test CRC 9A95CBB0
Copy CRC 9A95CBB0
Accurately ripped (confidence 1) [600D6150]
Copy OK

Track 4

Filename D:\music\Musicgate's rips\Scott Joplin, Pee Wee Russell - Take Me To The Land Of Jazz (2CD) - {The Cradle Of Jazz. History}\CD2 - Pee Wee Russell\04 - Serenade To A Shylock (Alternate).wav

Peak level 100.0 %
Track quality 100.0 %
Test CRC 221F7E44
Copy CRC 221F7E44
Accurately ripped (confidence 1) [FA4D2505]
Copy OK

Track 5

Filename D:\music\Musicgate's rips\Scott Joplin, Pee Wee Russell - Take Me To The Land Of Jazz (2CD) - {The Cradle Of Jazz. History}\CD2 - Pee Wee Russell\05 - Sunday (Alternate).wav

Peak level 99.9 %
Track quality 100.0 %
Test CRC 30C9EFF2
Copy CRC 30C9EFF2
Accurately ripped (confidence 1) [C5609CB6]
Copy OK

Track 6

Filename D:\music\Musicgate's rips\Scott Joplin, Pee Wee Russell - Take Me To The Land Of Jazz (2CD) - {The Cradle Of Jazz. History}\CD2 - Pee Wee Russell\06 - (I Ain'T Gonna Give Nobody) None Of My Jellyroll.wav

Peak level 99.4 %
Track quality 100.0 %
Test CRC 9E290BC8
Copy CRC 9E290BC8
Accurately ripped (confidence 1) [CDACC7F4]
Copy OK

Track 7

Filename D:\music\Musicgate's rips\Scott Joplin, Pee Wee Russell - Take Me To The Land Of Jazz (2CD) - {The Cradle Of Jazz. History}\CD2 - Pee Wee Russell\07 - Georgia Grind.wav

Peak level 96.0 %
Track quality 100.0 %
Test CRC 1F6AB167
Copy CRC 1F6AB167
Accurately ripped (confidence 1) [BD202525]
Copy OK

Track 8

Filename D:\music\Musicgate's rips\Scott Joplin, Pee Wee Russell - Take Me To The Land Of Jazz (2CD) - {The Cradle Of Jazz. History}\CD2 - Pee Wee Russell\08 - Jig Walk.wav

Peak level 98.7 %
Track quality 100.0 %
Test CRC 6D9CF9A7
Copy CRC 6D9CF9A7
Accurately ripped (confidence 1) [CC259A98]
Copy OK

Track 9

Filename D:\music\Musicgate's rips\Scott Joplin, Pee Wee Russell - Take Me To The Land Of Jazz (2CD) - {The Cradle Of Jazz. History}\CD2 - Pee Wee Russell\09 - Deuces Wild.wav

Peak level 98.9 %
Track quality 100.0 %
Test CRC 75EA66FB
Copy CRC 75EA66FB
Accurately ripped (confidence 1) [2818B4CD]
Copy OK

Track 10

Filename D:\music\Musicgate's rips\Scott Joplin, Pee Wee Russell - Take Me To The Land Of Jazz (2CD) - {The Cradle Of Jazz. History}\CD2 - Pee Wee Russell\10 - The Last Time I Saw Chicago.wav

Peak level 90.5 %
Track quality 100.0 %
Test CRC 5BB8C8B9
Copy CRC 5BB8C8B9
Accurately ripped (confidence 1) [3E9115FB]
Copy OK

Track 11

Filename D:\music\Musicgate's rips\Scott Joplin, Pee Wee Russell - Take Me To The Land Of Jazz (2CD) - {The Cradle Of Jazz. History}\CD2 - Pee Wee Russell\11 - About Face.wav

Peak level 100.0 %
Track quality 100.0 %
Test CRC BBB8FE30
Copy CRC BBB8FE30
Accurately ripped (confidence 1) [C5790B93]
Copy OK

Track 12

Filename D:\music\Musicgate's rips\Scott Joplin, Pee Wee Russell - Take Me To The Land Of Jazz (2CD) - {The Cradle Of Jazz. History}\CD2 - Pee Wee Russell\12 - Don'T Leave Me Daddy.wav

Peak level 97.2 %
Track quality 100.0 %
Test CRC 87E8DEBF
Copy CRC 87E8DEBF
Accurately ripped (confidence 1) [BBAA7E21]
Copy OK

Track 13

Filename D:\music\Musicgate's rips\Scott Joplin, Pee Wee Russell - Take Me To The Land Of Jazz (2CD) - {The Cradle Of Jazz. History}\CD2 - Pee Wee Russell\13 - Rosetta.wav

Peak level 97.2 %
Track quality 100.0 %
Test CRC CC054058
Copy CRC CC054058
Accurately ripped (confidence 1) [32E4848F]
Copy OK

Track 14

Filename D:\music\Musicgate's rips\Scott Joplin, Pee Wee Russell - Take Me To The Land Of Jazz (2CD) - {The Cradle Of Jazz. History}\CD2 - Pee Wee Russell\14 - Squeeze Me (Alternate).wav

Peak level 98.7 %
Track quality 100.0 %
Test CRC 552CDF21
Copy CRC 552CDF21
Accurately ripped (confidence 1) [A4EC6E9B]
Copy OK

Track 15

Filename D:\music\Musicgate's rips\Scott Joplin, Pee Wee Russell - Take Me To The Land Of Jazz (2CD) - {The Cradle Of Jazz. History}\CD2 - Pee Wee Russell\15 - Take Me To The Land Of Jazz.wav

Peak level 97.9 %
Track quality 100.0 %
Test CRC D46580A6
Copy CRC D46580A6
Accurately ripped (confidence 1) [49317728]
Copy OK

Track 16

Filename D:\music\Musicgate's rips\Scott Joplin, Pee Wee Russell - Take Me To The Land Of Jazz (2CD) - {The Cradle Of Jazz. History}\CD2 - Pee Wee Russell\16 - Take Me To The Land Of Jazz (Alternate).wav

Peak level 96.4 %
Track quality 100.0 %
Test CRC BB2E58B5
Copy CRC BB2E58B5
Accurately ripped (confidence 1) [2BDBFA8B]
Copy OK

Track 17

Filename D:\music\Musicgate's rips\Scott Joplin, Pee Wee Russell - Take Me To The Land Of Jazz (2CD) - {The Cradle Of Jazz. History}\CD2 - Pee Wee Russell\17 - Rose Of Washington Square.wav

Peak level 95.6 %
Track quality 100.0 %
Test CRC D9E923DC
Copy CRC D9E923DC
Accurately ripped (confidence 1) [91CFE188]
Copy OK

Track 18

Filename D:\music\Musicgate's rips\Scott Joplin, Pee Wee Russell - Take Me To The Land Of Jazz (2CD) - {The Cradle Of Jazz. History}\CD2 - Pee Wee Russell\18 - Rose Of Washington Square (Alternate).wav

Peak level 96.6 %
Track quality 100.0 %
Test CRC E1213DAD
Copy CRC E1213DAD
Accurately ripped (confidence 1) [F4D4A9EE]
Copy OK

Track 19

Filename D:\music\Musicgate's rips\Scott Joplin, Pee Wee Russell - Take Me To The Land Of Jazz (2CD) - {The Cradle Of Jazz. History}\CD2 - Pee Wee Russell\19 - Keepin' Out Of Mischief Now (Alternate).wav

Peak level 97.4 %
Track quality 100.0 %
Test CRC 16DF6847
Copy CRC 16DF6847
Accurately ripped (confidence 1) [590C2673]
Copy OK

Track 20

Filename D:\music\Musicgate's rips\Scott Joplin, Pee Wee Russell - Take Me To The Land Of Jazz (2CD) - {The Cradle Of Jazz. History}\CD2 - Pee Wee Russell\20 - D.A. Blues.wav

Peak level 83.7 %
Track quality 100.0 %
Test CRC 9033C660
Copy CRC 9033C660
Accurately ripped (confidence 1) [F69A468C]
Copy OK

Track 21

Filename D:\music\Musicgate's rips\Scott Joplin, Pee Wee Russell - Take Me To The Land Of Jazz (2CD) - {The Cradle Of Jazz. History}\CD2 - Pee Wee Russell\21 - D.A. Blues (Alternate).wav

Peak level 81.0 %
Track quality 100.0 %
Test CRC E99687C0
Copy CRC E99687C0
Accurately ripped (confidence 1) [2535C335]
Copy OK

Track 22

Filename D:\music\Musicgate's rips\Scott Joplin, Pee Wee Russell - Take Me To The Land Of Jazz (2CD) - {The Cradle Of Jazz. History}\CD2 - Pee Wee Russell\22 - Wailin' D.A. Blues.wav

Peak level 78.6 %
Track quality 100.0 %
Test CRC F7FA2C6A
Copy CRC F7FA2C6A
Accurately ripped (confidence 1) [9F0F0A06]
Copy OK


All tracks accurately ripped

No errors occurred

End of status report
avatar
Musicgate
Аксакал
Аксакал

Posts : 1018
Join date : 2010-09-01

View user profile

Back to top Go down

View previous topic View next topic Back to top

- Similar topics

 
Permissions in this forum:
You cannot reply to topics in this forum