Eddie Condon (Early Jazz)

View previous topic View next topic Go down

Eddie Condon (Early Jazz)

Post by Musicgate on Wed Oct 20, 2010 4:54 am

Eddie Condon - That's A Serious Thing (2CD) - {The Cradle Of Jazz. History}



Жанр: Early Jazz
Год издания: Unknown
Дата записи: Feb 8, 1929 - Mar 24, 1940
Страна - производитель диска: Germany
Издатель (лейбл): Trumpets Of Jericho Ltd.
Номер по каталогу: 20.3008-HI
Тип: Compilation

Аудио кодек: FLAC (*.flac)
Тип рипа: (tracks + .cue)
Корректность рипа: EAC ripped, correct read offset, test and copy
Битрейт аудио: lossless
Наличие сканов в содержимом раздачи: full scans, png, 300 dpi
Продолжительность: 1:57:31
Источник (релизер): Моя коллекция Л Рендера, мой рип

Трэклист:
1. I'm Gonna Stomp Mr Henry Lee (Teagarden - Condon - Kelly - Rubens) - 3:35
2. That's A Serious Thing (Teagarden - Condon - Sullivan - Mezzrow) - 3:32
3. Ja-Da (Carleton) - 2:41
4. Love Is Just Around The Comer (Gensler - Robin) - 3:04
5. Embroceable You (G. & I. Gershwin) - 4:06
6. Sunday (Conn - Styne - Kreuger) - 3:12
7. Ballin' The Jack (Smith -Burris) - 2:58
8. I Ain't Gonna Give Nobody None Of My Jelly Roll (S. & С Williams) - 3:01
9. Sensation (la Rocca) - 2:51
10. Fidgety Feet (La Rocca - Shields) - 2:53
11. Oh, Sister Ain't That Hot (White - Condon - Donaldson) 2:56
12. Georgia Grind (Williams - B. Allen) - 2:56
13. That's A Plenty (Pollack) - 4:10
14. Panama (Tyers) - 4:15
15. Original Dixieland One Step (La Rocca) - 3:05
16. Baby Won't You Please Come Home (Williams - Warfield) - 2:51 Nobody Knows You When You're Down And Out (Cox) - 3:00
17. Rose Room (Williams - Hickman) - 2:58
18. I Must Have That Man (Fields - McHugh) - 3:29
19. When Your Lover Has Gone (Swan) - 3:25

CD2
1. The Eel (Freemen) - 3:02
2. Madame Dynamite (Hill) - 2:57
3. Home Cooking (Condon) - 2:54
4. Beat To The Socks (Stacy - Condon - Freeman) - 2:49
5. California Here I Come (De Sylva - Meyer - Jolson) - 3:03
6. It's Right Here For You (Bradford) - 3:03
7. Strut Miss Lizzie (Kramer - Layton) - 3:05
8. (You're Some) Pretty Doll (Williams) - 2:52
9. Dancing Foil (Snyder - Smith - Wheeler) - 2:50
10. Diane (Pollack - Rapee) - 3:04
11. Serenade To A Shylock (Russell) - 4:31
12. There'll Be Some Changes Made (Overstreet - Higgins) - 2:47
13. Nobody's Sweetheart (Kahn - Erman - Meyers - Schoebel) - 3:26
14. Friar's Point Shuffle (Condon - McKenzie) - 3:05
15. A Good Man Is Hard To Find - Part 1 (Green) - 4:30
16. A Good Man Is Hard To Find - Port 2 (Green) - 4:19

"Состав, даты, города":

I'm Gonna Stomp Mr. Henry Lee
That's A Serious Thing

New York. February 8. 1929
Leonard Davis (tp), Jack Teagarden (tb)(vcl), Mezz Mezzrow (cl), Happy Cauldwell (ts), Joe Sullivan (p), Eddie Condon (bjo), George Stafford (d).

Ja-Da
Love Is Just Around The Corner

New York. January 17. 1938
Bobby Hackett (cn), George Brunies (tb), Pee Wee Russell (cl), Bud Freeman (ts), Jess Stacy (p), Eddie Condon (g), Artie Shapiro (b), George Wettling (d).

Embraceable You
New York, April 30, 1938. same:
Jack Teagarden (tb) replaces George Brunies.

Sunday
New York. November 12. 1938
Bobby Hackett (cb), Vernon Brown (tb), Pee Wee Russell (cl), Bud Freeman (ts), Joe Bushkin (p), Eddie Condon (bjo), Artie Shapiro (b), Lionel Hampton (d).

Ballin' The Jack
I Ain't Gonna Give Nobody None
Of My Jelly Roll

New York. April 4. 1940
Max Kaminsky (tp), Brad Gowans (vcl)(tb). Pee Wee Russell (cl), Joe Bushkin (p), Eddie Condon (g). Artie Shapira (b),. George Wettling
(d).

Sensation
Fidgety Feet

New York. April 4. 1940
Max Kaminsky (tp), Brad Gowans (vcl)(tb), Pee Wee Russell (cl), Bud Freeman (ts), Dave Bowman (p), Eddie Condon (g), Pete Peterson (b), Morey Feld (d).

Oh, Sister Ain't That Hot
Georgia Grind

New York, November 11. 1940
Marty Marsala (cn), Goerge Brunies (tb), Pee Wee Russell (cl), Fats Waller (p), Eddie Condon (g), Artie Shapiro (b), George Wettling (d).

That's A Plenty
Panama

New York, November 27. 1943
Wild Bill Davison (cn), George Brunies (tb), Pee Wee Russell (cl), Genne Schroeder (p), Eddie Condon (g), Bob Casey (b), George Wettling (d).

Original Dixieland One Step
Baby Won't You Please Come Home

New York. November 30. 1943. same:
Edmond Hall (cl) replaces Pee Wee Russell.

Nobody Knows You When You're Down And Out
Rose Room

New York. December 2. 1943
Max Kaminsky (tp), Benny Morton (tb), Pee Wee Russell (cl), Joe Bushkin (p), Eddie Condon (bjo), Bob Casey (b), Sidney Catlett (d).

I Must Have That Man
New York, April 25, 1944
Bobby Hackett (cn). Miff Mole (tb), Pee Wee Russell (cl), Ernie Caceres (bs), Gene Schroeder (p), Eddie Condon (g), Bob Casey (b), Joe Grausso (d).

When Your Lover Has Gone
New York. December 13. 1944
Bobby Hackett (cn), Billy Butterfield, Max Kaminsky (tp), Jack Teagarden (tb), Ernie Caceres (bs), Gene Schroeder (p), Eddie Condon (g), Bob Haggart (b), George Wettling (d).

The Eel
Madame Dynamite
Home Cooking

New York. October 21. 1933
Max Kaminsky (cn), Floyd O'Brien (tb), Pee Wee Russell (cl), Bud Freeman (ts), Alex Hill (p)(arr), Eddie Condon (bjo), Artie Bernstein (b), Sidney Catlett (d).

Beat To The Socks
New York. January 17. 1938
Bobby Hackett (cn), George Brunies (tb), Pee Wee Russell (cl), Bud Freeman (ts), Jess Stacy (p), Eddie Condon (g), Artie Shapiro (b), George Wettling (d).

California Here I Come
New York. November 12. 1938
Bobby Hackett (cn), Vernon Brown (tb), Pee Wee Russell (cl), Bud Freeman (ts), Joe Bushkin (p), Eddie Condon (bjo), Artie Shapiro (b), Lionel Hampton (d).

It's Right Here For You
Strut Miss Lizzie

New York. November 30. 1939
Max Kaminsky (tp), Brag Gowans (vcl)(tb), Pee Wee Russell (cl), Joe Bushkin (p), Eddie Condon (g), Artie Shapiro (b), George Wettling (d).

(You're Some) Pretty Doll
Dancing Foll

New York. November 11. 1940
Marty Marsala (cn), Georgie Brunies (tb), Pee Wee Russell (cl), Fats Waller (p), Eddie Condon (g), Artie Shapiro (b), George Wettling (d).

Diane
Serenade To A Shylock

New York. April 30. 1938
Bobby Hackett (cn), Jack Teagarden (tb), Pee Wee Russell (cl), Bud Freeman (ts), Jess Stacy (p), Eddie Condon (g), Artie Shapiro (b), George Wettling (d).

There'll Be Some Changes Made
Nobody's Sweetheart
Friar's Point Shuffle

New York. August 11. 1939
Max Kaminsky (tp), Brad Gowans (vtb), Pee Wee Russell (cl), Bud Freeman (ts), Joe Sullivan (p), Eddie Condon (g), Clyde Newcombe (b), Dave Tough (d).

A Good Man Is Hard To Find - Part 1
A Good Man Is Hard To Find - Part 2

New York. March 24. 1940
Max Kaminsky (tp), Muggsy Spanier (cn), Miff Mole (tb), Brad Gowans (vtb), Pee Wee Russell (cl), Joe Marsalw (cl)(as), Bud Freeman (ts), Jess Stacy (p), Eddie Condon (g), Artie Shapiro (b), George Wettling (d).

"Несколько слов на английском":
Eddie Condon
There are very few single persons who had such a lasting effect on the traditions of jazz, especially the music of Chicago, as the guitarist and banjo player Eddie Condon.
Albert Edwin "Eddie" Condon was born on the 16th November, 1904 in Goodland, Indiana. Like so many other white musicians he was an admirer of the black and white bands from New Orleans, who came to Chicago in the Twenties. He taught himself to play the banjo, and performed as a 15 year old at high school parties and dances. It was at such a party that he made the acquaintance of Bud Freeman and Jimmy McPartland. They all went together with Benny Goodman, Gene Krupa, Frank Teschemache and Joe Sullivan to the Austin High School. The boys had made a habit of creeping into the local clubs in which the black bands played jazz music. They listened to Joe King Oliver and Louis Armstrong.
Condon and his friends were impressed by the rhythm, and the atmosphere which their idols were capable of creating. Several of them formed a band, which
the young Condon joined a short time later. He played guitar and banjo, but his major contribution was as an organiser and manager of the band. In 1927 -after Red McKenzie had joined the band - the small group of white musicians were to make recordings which were still being talked about decades later. They called themselves the "McKenzie & Condon Chicagoans", and developed their own style, which was greatly different from that of the black bands. Their music was described as being hectic, almost hysterical.
The human aspect, and the feeling of unification between the musicians, was very strong and was reflected in their music. The usual passion of the jazz musicians from Louisiana was however missing. The "Chicagoans" played the very first, original white jazz which was later to get the name "Chicago Style".
Condon went to New York in 1928 and became the partner of Red Nichols. Together with McKenzie and Jack Bland they put together the "Mound City Blue Blowers". Business started to flounder after the Wall Street crash, whereby the white musicians had it easier than their black colleagues. Condon formed the
"Windy City Seven" with Pee Wee Russell. Parallel to this he recorded with Bobby Hackett and Artie Shaw, and went under his own name into recording studios with the All Stars line-up.
At this point in time many musicians had a tendency towards excessive alcohol consumption, and many were ruined by it. Condon, who was known as one of the hardest of drinkers, also showed signs at the age of 32 of his alcohol abuse. He had his pancreas removed through an emergency operation, which did not however stop him from further consuming his favourite drink, whiskey.
Condon organised jam sessions and jazz concerts from 1939. He was saved from being called up thanks to a psychologist, who declared him to be an alcoholic. After the end of the Second World War he opened up a night club in 1946 in New York, in which he also performed with his band. When one went into his club one could see a small group of, in the meantime slightly grey-haired, men on a small stage keeping the Chicago style of the Twenties alive. The club, which was in the artist's part of the town, became a meeting place for intellectuals.
He wrote his autobiography in 1947 "We Called It Music" and expressed with this title what he understood under jazz. He started his own jazz series in television as of 1948, and was highly acclaimed by the audiences of the Newport Festivals in 1954 and 1956.
Condon eventually went on a tour of Great Britain in 1957. A new tour followed in 1964. He performed in Australia, New Zealand and Japan, although he had only just recently recovered from a major illness. He then worked as a guitarist now and then with, amongst others, Billy Butterfield, Kai Winding, Art Hodges, Wild Bill Davidson and Barney Bigard.
Eddie Condon died on the 4th August, 1973 in New York. His New York club was closed in 1985.
Eddie Condon limited his style of playing the guitar to rhythm work. His most important role in the history of jazz was as an organiser of jazz concerts. He was the one who initiated the Dixieland revival in the U.S.A. and who thereby secured himself an immortal status.

"Лог создания рипа":

Exact Audio Copy V0.99 prebeta 4 from 23. January 2008

EAC extraction logfile from 16. September 2010, 17:56

Eddie Condon / That's A Serious Thing (cd1of2)

Used drive : HL-DT-STDVD-RAM GH22NP20 Adapter: 0 ID: 0

Read mode : Secure
Utilize accurate stream : Yes
Defeat audio cache : Yes
Make use of C2 pointers : No

Read offset correction : 102
Overread into Lead-In and Lead-Out : No
Fill up missing offset samples with silence : Yes
Delete leading and trailing silent blocks : No
Null samples used in CRC calculations : Yes
Used interface : Installed external ASPI interface
Gap handling : Appended to previous track

Used output format : User Defined Encoder
Selected bitrate : 320 kBit/s
Quality : High
Add ID3 tag : No
Command line compressor : C:\Program Files\Exact Audio Copy\Flac\flac.exe
Additional command line options : -V -8 -T "artist=%a" -T "title=%t" -T "album=%g" -T "date=%y" -T "tracknumber=%n" -T "genre=%m" %s

TOC of the extracted CD

Track | Start | Length | Start sector | End sector
---------------------------------------------------------
1 | 0:00.00 | 3:35.04 | 0 | 16128
2 | 3:35.04 | 3:32.29 | 16129 | 32057
3 | 7:07.33 | 2:41.58 | 32058 | 44190
4 | 9:49.16 | 3:04.49 | 44191 | 58039
5 | 12:53.65 | 4:06.54 | 58040 | 76543
6 | 17:00.44 | 3:12.10 | 76544 | 90953
7 | 20:12.54 | 2:58.64 | 90954 | 104367
8 | 23:11.43 | 3:01.44 | 104368 | 117986
9 | 26:13.12 | 2:51.15 | 117987 | 130826
10 | 29:04.27 | 2:53.02 | 130827 | 143803
11 | 31:57.29 | 2:56.28 | 143804 | 157031
12 | 34:53.57 | 2:56.38 | 157032 | 170269
13 | 37:50.20 | 4:10.54 | 170270 | 189073
14 | 42:00.74 | 4:15.51 | 189074 | 208249
15 | 46:16.50 | 3:05.66 | 208250 | 222190
16 | 49:22.41 | 2:51.03 | 222191 | 235018
17 | 52:13.44 | 3:00.56 | 235019 | 248574
18 | 55:14.25 | 2:58.14 | 248575 | 261938
19 | 58:12.39 | 3:29.13 | 261939 | 277626
20 | 61:41.52 | 3:25.55 | 277627 | 293056

Track 1

Filename D:\music\Musicgate's rips\Eddie Condon - That's A Serious Thing (2CD) - {The Cradle Of Jazz. History}\CD1\01 - I'm Gonna Stomp Mr. Henry Lee.wav

Pre-gap length 0:00:02.00

Peak level 91.5 %
Track quality 100.0 %
Test CRC 77D26C1F
Copy CRC 77D26C1F
Track not present in AccurateRip database
Copy OK

Track 2

Filename D:\music\Musicgate's rips\Eddie Condon - That's A Serious Thing (2CD) - {The Cradle Of Jazz. History}\CD1\02 - That's A Serious Thing.wav

Pre-gap length 0:00:01.60

Peak level 78.8 %
Track quality 100.0 %
Test CRC 0F2F5041
Copy CRC 0F2F5041
Track not present in AccurateRip database
Copy OK

Track 3

Filename D:\music\Musicgate's rips\Eddie Condon - That's A Serious Thing (2CD) - {The Cradle Of Jazz. History}\CD1\03 - Jo-Da.wav

Pre-gap length 0:00:01.60

Peak level 76.6 %
Track quality 100.0 %
Test CRC F0E5E716
Copy CRC F0E5E716
Track not present in AccurateRip database
Copy OK

Track 4

Filename D:\music\Musicgate's rips\Eddie Condon - That's A Serious Thing (2CD) - {The Cradle Of Jazz. History}\CD1\04 - Love Is Just Around The Corner.wav

Pre-gap length 0:00:01.60

Peak level 78.4 %
Track quality 100.0 %
Test CRC 838F1210
Copy CRC 838F1210
Track not present in AccurateRip database
Copy OK

Track 5

Filename D:\music\Musicgate's rips\Eddie Condon - That's A Serious Thing (2CD) - {The Cradle Of Jazz. History}\CD1\05 - Embraceable You.wav

Pre-gap length 0:00:01.60

Peak level 71.7 %
Track quality 99.9 %
Test CRC 0D7E8303
Copy CRC 0D7E8303
Track not present in AccurateRip database
Copy OK

Track 6

Filename D:\music\Musicgate's rips\Eddie Condon - That's A Serious Thing (2CD) - {The Cradle Of Jazz. History}\CD1\06 - Sunday.wav

Pre-gap length 0:00:01.60

Peak level 77.0 %
Track quality 100.0 %
Test CRC 54474D01
Copy CRC 54474D01
Track not present in AccurateRip database
Copy OK

Track 7

Filename D:\music\Musicgate's rips\Eddie Condon - That's A Serious Thing (2CD) - {The Cradle Of Jazz. History}\CD1\07 - Ballin' The Jack.wav

Pre-gap length 0:00:01.60

Peak level 73.3 %
Track quality 100.0 %
Test CRC A945D2A2
Copy CRC A945D2A2
Track not present in AccurateRip database
Copy OK

Track 8

Filename D:\music\Musicgate's rips\Eddie Condon - That's A Serious Thing (2CD) - {The Cradle Of Jazz. History}\CD1\08 - I Ain't Gonna Give Nobody None Of My Jelly Roll.wav

Pre-gap length 0:00:01.60

Peak level 81.6 %
Track quality 100.0 %
Test CRC 349F0E65
Copy CRC 349F0E65
Track not present in AccurateRip database
Copy OK

Track 9

Filename D:\music\Musicgate's rips\Eddie Condon - That's A Serious Thing (2CD) - {The Cradle Of Jazz. History}\CD1\09 - Sensation.wav

Pre-gap length 0:00:01.60

Peak level 86.4 %
Track quality 100.0 %
Test CRC 9924873D
Copy CRC 9924873D
Track not present in AccurateRip database
Copy OK

Track 10

Filename D:\music\Musicgate's rips\Eddie Condon - That's A Serious Thing (2CD) - {The Cradle Of Jazz. History}\CD1\10 - Fidgety Feet.wav

Pre-gap length 0:00:01.60

Peak level 74.2 %
Track quality 99.9 %
Test CRC 320EB2D9
Copy CRC 320EB2D9
Track not present in AccurateRip database
Copy OK

Track 11

Filename D:\music\Musicgate's rips\Eddie Condon - That's A Serious Thing (2CD) - {The Cradle Of Jazz. History}\CD1\11 - Oh, Sister Ain't That Hot.wav

Pre-gap length 0:00:01.60

Peak level 74.8 %
Track quality 100.0 %
Test CRC 2D3110EB
Copy CRC 2D3110EB
Track not present in AccurateRip database
Copy OK

Track 12

Filename D:\music\Musicgate's rips\Eddie Condon - That's A Serious Thing (2CD) - {The Cradle Of Jazz. History}\CD1\12 - Georgia Grind.wav

Pre-gap length 0:00:01.60

Peak level 72.3 %
Track quality 100.0 %
Test CRC C2BF8373
Copy CRC C2BF8373
Track not present in AccurateRip database
Copy OK

Track 13

Filename D:\music\Musicgate's rips\Eddie Condon - That's A Serious Thing (2CD) - {The Cradle Of Jazz. History}\CD1\13 - That's A Plenty.wav

Pre-gap length 0:00:01.60

Peak level 72.8 %
Track quality 99.9 %
Test CRC 75F491C4
Copy CRC 75F491C4
Track not present in AccurateRip database
Copy OK

Track 14

Filename D:\music\Musicgate's rips\Eddie Condon - That's A Serious Thing (2CD) - {The Cradle Of Jazz. History}\CD1\14 - Panama.wav

Pre-gap length 0:00:01.60

Peak level 76.1 %
Track quality 99.9 %
Test CRC 5AF957F9
Copy CRC 5AF957F9
Track not present in AccurateRip database
Copy OK

Track 15

Filename D:\music\Musicgate's rips\Eddie Condon - That's A Serious Thing (2CD) - {The Cradle Of Jazz. History}\CD1\15 - Original Dixieland One Step.wav

Pre-gap length 0:00:01.60

Peak level 100.0 %
Track quality 100.0 %
Test CRC 628F9D5C
Copy CRC 628F9D5C
Track not present in AccurateRip database
Copy OK

Track 16

Filename D:\music\Musicgate's rips\Eddie Condon - That's A Serious Thing (2CD) - {The Cradle Of Jazz. History}\CD1\16 - Baby Won't You Please Come Home.wav

Pre-gap length 0:00:01.60

Peak level 57.9 %
Track quality 100.0 %
Test CRC 4640C4BA
Copy CRC 4640C4BA
Track not present in AccurateRip database
Copy OK

Track 17

Filename D:\music\Musicgate's rips\Eddie Condon - That's A Serious Thing (2CD) - {The Cradle Of Jazz. History}\CD1\17 - Nobody Knows You When You're Down And Out.wav

Pre-gap length 0:00:01.60

Peak level 70.2 %
Track quality 100.0 %
Test CRC 9F8101A9
Copy CRC 9F8101A9
Track not present in AccurateRip database
Copy OK

Track 18

Filename D:\music\Musicgate's rips\Eddie Condon - That's A Serious Thing (2CD) - {The Cradle Of Jazz. History}\CD1\18 - Rose Room.wav

Pre-gap length 0:00:01.60

Peak level 73.8 %
Track quality 100.0 %
Test CRC 3682A626
Copy CRC 3682A626
Track not present in AccurateRip database
Copy OK

Track 19

Filename D:\music\Musicgate's rips\Eddie Condon - That's A Serious Thing (2CD) - {The Cradle Of Jazz. History}\CD1\19 - I Must Have That Man.wav

Pre-gap length 0:00:01.60

Peak level 73.8 %
Track quality 100.0 %
Test CRC 00277626
Copy CRC 00277626
Track not present in AccurateRip database
Copy OK

Track 20

Filename D:\music\Musicgate's rips\Eddie Condon - That's A Serious Thing (2CD) - {The Cradle Of Jazz. History}\CD1\20 - When Your Lover Has Gone.wav

Pre-gap length 0:00:01.60

Peak level 65.8 %
Track quality 100.0 %
Test CRC F9D0B9EA
Copy CRC F9D0B9EA
Track not present in AccurateRip database
Copy OK

None of the tracks are present in the AccurateRip database

No errors occurred

End of status report

Exact Audio Copy V0.99 prebeta 4 from 23. January 2008

EAC extraction logfile from 16. September 2010, 21:02

Eddie Condon / That's A Serios Thing (cd2of2)

Used drive : HL-DT-STDVD-RAM GH22NP20 Adapter: 0 ID: 0

Read mode : Secure
Utilize accurate stream : Yes
Defeat audio cache : Yes
Make use of C2 pointers : No

Read offset correction : 102
Overread into Lead-In and Lead-Out : No
Fill up missing offset samples with silence : Yes
Delete leading and trailing silent blocks : No
Null samples used in CRC calculations : Yes
Used interface : Installed external ASPI interface
Gap handling : Appended to previous track

Used output format : User Defined Encoder
Selected bitrate : 320 kBit/s
Quality : High
Add ID3 tag : No
Command line compressor : C:\Program Files\Exact Audio Copy\Flac\flac.exe
Additional command line options : -V -8 -T "artist=%a" -T "title=%t" -T "album=%g" -T "date=%y" -T "tracknumber=%n" -T "genre=%m" %s

TOC of the extracted CD

Track | Start | Length | Start sector | End sector
---------------------------------------------------------
1 | 0:00.00 | 3:02.47 | 0 | 13696
2 | 3:02.47 | 2:57.02 | 13697 | 26973
3 | 5:59.49 | 2:54.67 | 26974 | 40090
4 | 8:54.41 | 2:49.23 | 40091 | 52788
5 | 11:43.64 | 3:03.19 | 52789 | 66532
6 | 14:47.08 | 3:03.11 | 66533 | 80268
7 | 17:50.19 | 3:05.38 | 80269 | 94181
8 | 20:55.57 | 2:52.21 | 94182 | 107102
9 | 23:48.03 | 2:50.42 | 107103 | 119894
10 | 26:38.45 | 3:04.27 | 119895 | 133721
11 | 29:42.72 | 4:31.55 | 133722 | 154101
12 | 34:14.52 | 2:47.24 | 154102 | 166650
13 | 37:02.01 | 3:26.12 | 166651 | 182112
14 | 40:28.13 | 3:05.65 | 182113 | 196052
15 | 43:34.03 | 4:30.34 | 196053 | 216336
16 | 48:04.37 | 4:19.45 | 216337 | 235806

Track 1

Filename D:\music\Musicgate's rips\Eddie Condon - That's A Serious Thing (2CD) - {The Cradle Of Jazz. History}\CD2\01 - The Eel.wav

Pre-gap length 0:00:02.00

Peak level 92.3 %
Track quality 99.9 %
Test CRC BC1FCDAA
Copy CRC BC1FCDAA
Track not present in AccurateRip database
Copy OK

Track 2

Filename D:\music\Musicgate's rips\Eddie Condon - That's A Serious Thing (2CD) - {The Cradle Of Jazz. History}\CD2\02 - Madame Dynamite.wav

Pre-gap length 0:00:01.60

Peak level 98.6 %
Track quality 100.0 %
Test CRC 0411D1AD
Copy CRC 0411D1AD
Track not present in AccurateRip database
Copy OK

Track 3

Filename D:\music\Musicgate's rips\Eddie Condon - That's A Serious Thing (2CD) - {The Cradle Of Jazz. History}\CD2\03 - Home Cooking.wav

Pre-gap length 0:00:01.60

Peak level 80.8 %
Track quality 100.0 %
Test CRC 67BB5438
Copy CRC 67BB5438
Track not present in AccurateRip database
Copy OK

Track 4

Filename D:\music\Musicgate's rips\Eddie Condon - That's A Serious Thing (2CD) - {The Cradle Of Jazz. History}\CD2\04 - Beat To the Socks.wav

Pre-gap length 0:00:01.60

Peak level 91.3 %
Track quality 100.0 %
Test CRC B944AF27
Copy CRC B944AF27
Track not present in AccurateRip database
Copy OK

Track 5

Filename D:\music\Musicgate's rips\Eddie Condon - That's A Serious Thing (2CD) - {The Cradle Of Jazz. History}\CD2\05 - California Here I Come.wav

Pre-gap length 0:00:01.60

Peak level 95.4 %
Track quality 100.0 %
Test CRC 869E97BF
Copy CRC 869E97BF
Track not present in AccurateRip database
Copy OK

Track 6

Filename D:\music\Musicgate's rips\Eddie Condon - That's A Serious Thing (2CD) - {The Cradle Of Jazz. History}\CD2\06 - It's Right Here for You.wav

Pre-gap length 0:00:01.60

Peak level 90.2 %
Track quality 100.0 %
Test CRC 4A5F600F
Copy CRC 4A5F600F
Track not present in AccurateRip database
Copy OK

Track 7

Filename D:\music\Musicgate's rips\Eddie Condon - That's A Serious Thing (2CD) - {The Cradle Of Jazz. History}\CD2\07 - Strut Miss Lizzie.wav

Pre-gap length 0:00:01.60

Peak level 86.8 %
Track quality 100.0 %
Test CRC 2854185B
Copy CRC 2854185B
Track not present in AccurateRip database
Copy OK

Track 8

Filename D:\music\Musicgate's rips\Eddie Condon - That's A Serious Thing (2CD) - {The Cradle Of Jazz. History}\CD2\08 - (You're Some) Pretty Doll.wav

Pre-gap length 0:00:01.60

Peak level 92.8 %
Track quality 100.0 %
Test CRC BA9D0FEA
Copy CRC BA9D0FEA
Track not present in AccurateRip database
Copy OK

Track 9

Filename D:\music\Musicgate's rips\Eddie Condon - That's A Serious Thing (2CD) - {The Cradle Of Jazz. History}\CD2\09 - Dancing Fool.wav

Pre-gap length 0:00:01.60

Peak level 100.0 %
Track quality 100.0 %
Test CRC 8288A81E
Copy CRC 8288A81E
Track not present in AccurateRip database
Copy OK

Track 10

Filename D:\music\Musicgate's rips\Eddie Condon - That's A Serious Thing (2CD) - {The Cradle Of Jazz. History}\CD2\10 - Diane.wav

Pre-gap length 0:00:01.60

Peak level 93.0 %
Track quality 100.0 %
Test CRC 13DF5E73
Copy CRC 13DF5E73
Track not present in AccurateRip database
Copy OK

Track 11

Filename D:\music\Musicgate's rips\Eddie Condon - That's A Serious Thing (2CD) - {The Cradle Of Jazz. History}\CD2\11 - Serenade to a Shylock.wav

Pre-gap length 0:00:01.60

Peak level 99.1 %
Track quality 100.0 %
Test CRC F2C2F0FD
Copy CRC F2C2F0FD
Track not present in AccurateRip database
Copy OK

Track 12

Filename D:\music\Musicgate's rips\Eddie Condon - That's A Serious Thing (2CD) - {The Cradle Of Jazz. History}\CD2\12 - There'll Be Some Changes Made.wav

Pre-gap length 0:00:01.60

Peak level 80.8 %
Track quality 100.0 %
Test CRC 9CAD4979
Copy CRC 9CAD4979
Track not present in AccurateRip database
Copy OK

Track 13

Filename D:\music\Musicgate's rips\Eddie Condon - That's A Serious Thing (2CD) - {The Cradle Of Jazz. History}\CD2\13 - Nobody's Sweetheart.wav

Pre-gap length 0:00:01.60

Peak level 94.8 %
Track quality 100.0 %
Test CRC 3D560046
Copy CRC 3D560046
Track not present in AccurateRip database
Copy OK

Track 14

Filename D:\music\Musicgate's rips\Eddie Condon - That's A Serious Thing (2CD) - {The Cradle Of Jazz. History}\CD2\14 - Friar's Point Shuffle.wav

Pre-gap length 0:00:01.60

Peak level 87.1 %
Track quality 100.0 %
Test CRC AA74C051
Copy CRC AA74C051
Track not present in AccurateRip database
Copy OK

Track 15

Filename D:\music\Musicgate's rips\Eddie Condon - That's A Serious Thing (2CD) - {The Cradle Of Jazz. History}\CD2\15 - A Good Man Is Hard to Find, Pt. 1.wav

Pre-gap length 0:00:01.60

Peak level 78.0 %
Track quality 100.0 %
Test CRC 2404028C
Copy CRC 2404028C
Track not present in AccurateRip database
Copy OK

Track 16

Filename D:\music\Musicgate's rips\Eddie Condon - That's A Serious Thing (2CD) - {The Cradle Of Jazz. History}\CD2\16 - A Good Man Is Hard to Find, Pt. 2.wav

Pre-gap length 0:00:01.60

Peak level 67.0 %
Track quality 100.0 %
Test CRC 456E7AB5
Copy CRC 456E7AB5
Track not present in AccurateRip database
Copy OK

None of the tracks are present in the AccurateRip database

No errors occurred

End of status report
avatar
Musicgate
Аксакал
Аксакал

Posts : 1018
Join date : 2010-09-01

View user profile

Back to top Go down

View previous topic View next topic Back to top

- Similar topics

 
Permissions in this forum:
You cannot reply to topics in this forum