J.C.Higginbotham, Edmond Hall

View previous topic View next topic Go down

J.C.Higginbotham, Edmond Hall

Post by Musicgate on Tue Oct 19, 2010 4:42 am



J.C.Higginbotham, Edmond Hall - Big City Blues

Жанр: Swing
Дата записи: 1929 - 1944
Год издания: Inknown
Страна - производитель диска: Germany / Israel
Издатель (лейбл): Trumpets Of Jericho Ltd.
Distributed by: This is music GmbH, Hamburg
Номер по каталогу: 20.3014-HI
Тип: Compilation
Продолжительность: 2:18:28
Источник (релизер): коллекция Л Рендера, мой рип

Трэклист:
CD1 - J.C.Higginbotham
1. Mahogany Hall Stomp (Williams) - 3:28
2. It Should Be You (Allen) - 3:09
3. Swing Out (Higginbotham - Allen) - 3:17
4. Feelin' the Spirit (Russell) - 3:14
5. Jersey Lightning (Russell) - 3:24
6. St. Louis Blues (Handy) - 3:03
7. Doctor Blues (Russell - Barbarin) - 3:19
8. Saratoga Shout (Russell - Holmes) - 3:32
9. Give Me Your Telephone Number (Higginbotham) - 3:10
10. Sugar Hill Function (Holmes) - 3:02
11. You Might Get Better, But You'll Never Get Well (Russell - Metcalfe) - 3:06
12. On Revival Day (Razof) - 3:09
13. Muggin' Lightly (Russell - Levy) - 2:56
14. Ease On Down (Williams - Russell) - 2:56
15. Casa loma Stomp (Gifford) - 3:12
16. Symphony In Riffs (Carter-Mills) - 3:05
17. Roll Along, Prairie Moon (Rito - McPherson - Von Tilzer) 2:51
18. That's How I Feel Today (Mezzrow - Sampson) - 2:34
19. I Double Dote You (Shond - Eaton) - 2:58
20. Let That Be A Lesson To You (Mercer - Whiting) - 2:35
21. When The Saints Go Marching In (trad.) - 2:44
22. The Sheik Of Araby (Smith - Wheeler - Snyder) - 3:01

CD2 - Edmond Hall
1. Jammin' In Four (Lewis) - 4:20
2. Edmond Hall Blues (Lewis) - 4:13
3. Profoundly Blue No. 2 (Lewis) - 4:13
4. Celestial Express (Lewis) - 3:54
5. Royal Garden Blues (C. Williams-S. Williams) - 4:09
6. Blues At Blue Note (Hall) - 4:13
7. High Society (C. Williams - A. J. Piron) - 4:05
8. The Man I Love (G. & I. Gershwin) - 3:13
9. Rampin' In '44 (Hall) - 3:57
10. Seein' Red (Hall) - 4:13
11. I've Found A New Baby (S. Williams - J. Palmer) - 2:52
12. It's Been So Long (Adamson - Donaldson) - 3:07
13. I Can't Believe That You're In Love With Me (Gaskill - McHugh) - 3:02
14. Big City Blues (Hall) - 4:13
15. It's Only A Chanty In Old Chanty Town (Little-Siras-Young) - 2:42
16. Walkin' The Dog (S. Brooks) - 4:31
17. Tishomingo Blues (S. Williams) - 4:33
18. Caravan (Ellington - Tizol) - 2:27
19. The Sheik Of Araby (Smith - Wheeler - Snyder) - 2:30

"Состав, даты, города":
Mahogany Half Stomp
New York. March 5. 1929
Louis Armstrong (tp). J. С Higginbotham (tb), Albert Nicholas, Charlie Holmes (as), Teddy Hill (ts), Luis Russel (p), Eddie Condon (bjo), Lonnie Johnson (g). Pops Faster (b), Paul Barbarin (d).

It Should Be You
New York. July 16. 1929
Henry "Red" Allen (tp), J. С Higginbotham (tb), Albert Nicholas (cl)(as), Charlie Holmes (cl)(ss)(as). Teddy Hill (d)(ts)(bs), Luis Russell (p)(cel). Will Johnson (bjo)(g). Pops Foster (b), Paul Barbarin (d).

Swing Out
New York. July 17. 1929. same.
Feelin The Spirit
Jersey Lightning

New York, September 6, 1929
Luis Russell (p)(dir), Henry "Red" Allen, Bill Coleman (tp), J. С Higginbotham (tb)(vcl). Albert Nicholas (cl)(as). Charlie Holmes (ss)(as), Teddy Hill (ts). Will Johnson (bjo)(g), Pops Foster (b), Paul Barbarin (d).

St Louis Blues
New York. December 13. 1929
Louis Armstrong (tp)(vcl), Otis Johnson, Henry „Red" Allen (tp), J. С Higginbotham (tb), Albert Nicholas, Charlie Holmes (cl)(as), Teddy Hill (ts), Luis Russell (p), Will Johnson (g). Pops Foster (b), Paul Barbarin (d).

Doctor Blues
New-York. December 17. 1920
Luis Russell (p)(dir), Henry „Red" Allen, Otis Johnson (tp), J. C. Higginbotham (tb)(vcl), Albert Nicholas (cl)(as). Charlie Holmes (ss)(as), Teddy Hill (ts), Will Johnson (bjo)(g), Pops Foster (b), Paul Barbarin (d).

Saratoga Shout
New York, January 24, 1930, same.
Give Me Your Telephone Number
New York, February 5. 1930
Henry „Red" Allen (tp), J. C. Higginbotham (tb), Charlie Holmes (as), Luis Russell (p). Will Johnson (g). Pops Foster (b), Paul Barbarin (d).

Sugar Hill Function
You Might Get Better, But You'll Never Get Well

New York. February IK. 1930
Henry „Red" Allen (tp)(vcl), Otis Johnson (tp), J. С Higginbotham (tb). William Thornton Blue (cl)(as), Charlie Holmes (el)(ss)(as), Teddy Hill (d)(ts)(bs). Luis Russell (p). Will Johnson (bjo)(g)(vcl), Pops Foster (b), Paul Barbarin (d).

On Revival Day
New York, May 29. 1930
Luis Russell (p)(dir), Henry "Red" Allen. Otis Johnson (tp), J. C. Higginbotham (tb). Albert Nicholas lc!)(as). Charlie Holmes (ss)(as), Teddy Hill (ts), Will Johnson (bjo)(g). Pops Foster (b), Paul Barbarin (d), Andy Razaf (vcl).

Muggin' Lightly
New York, September 5, 1930
Luis Russell (p)(ir). Неnry "Red" Allen, Otis Johnson (tp), J. С Higginbotham (tb). Albert Nicholas (c!)(ss)(as), Charlie Holmes (ss)(as), Greely Walton (ts). Will Johnson (bjo)(g}, Pops Foster (b), Paul Barbarin(d).

Ease On Down
New York, December ) 7. 1930, same.
Casa Loma Stomp
New York, March 11, 1932
Fletcher Henderson (p)(arr)(dir), Leora Henderson, Rex Stewart, Bobby Stark (tp), J. С Higginbotham, Sandy Williams (tb), Russell Procope (cl)(as), Edgar Sampson (as), Coleman Hawkins (ts), Clarence Holiday (g), John Kirby (bb)(b), Walter Johnson (d), Gene Gifford (arr).

Symphony In Rifts
New York, October 16. 1933
Benny Carter (as)(dir). Eddie Mallory, Bill Dillard, Dick Clarke (tp), J. C. Higginbotham, Fred Robinson, Keg Johnson (tb), Wayman Carver, Glyn Paque (as), Johnny Russell (ts), Teddy Wilson (p), Lawrence Lucie (g), Ernest "Bass"Hill (b), Sid Catlett (d).

Roll Along, Prairie Moon
New York. July 19. 1935
Henry "Red" Allen (tp)(vcl). J. С Higginbotham (tb), Albert Nicholas (cl). Cecil Scott (ts), Horace Henderson (p)(arr), Lawrence Lucie (g), Elmer James |b), Kaiser Marshall (d).

That's How I Feel Today
New York, June 14, 1937
Sy Oliver (tp), J. С Higginbotham (tb), Mezz Mezzrow (cl), Happy Caldwell (ts). Sonny White (p), Bernard Addison (g), Pops Foster (b), Jimmy Crawford (d).

I Double Dare You
Let That Be A Lesson To You
Los Angeles, January 12, 1938
Louis Armstrong (tp)(vcl). Shelton Hemphill, Louis Bacon, Henry „Red" Allen (tp). Wibur de Paris, George Washington, J. C. Higginbotham (tb), Pete Clarke, Charlie Holmes (as), Albert Nicholas, Bingie Madison (cl)(ts). Luis Russell (p}(arr), Lee Blair (g). Pops Foster (b), Paul Barbarin (d).

When The Saints Go Marching In
New York. May 13, 1938
Louis Armstrong (tp)(vcl), Shelton Hemphill (tp), J. C. Higginbotham (tb). Rupert Cole (cl)(as), Charlie Holmes (as), Bingie Madison (el)(ts), Luis Russell (p)(arr), Lee Blair (g). Red Calender (b), Paul Barbarin (d).

The Sheik Of Araby
New York. January 3, 1940
Benny Carter (tp), J. С Higginbotham (tb), Danny Polo (cl), Coleman Hawkins (ts). Gene Rodgers (p). Lawrence Lucie (g), Johnny Williams (b), Waller Johnson (d).

Jammin' In Four
Edmond Hall Blues
Profoundly Blue No. 2
Celestial Express

New York. February 5. 1941
Edmond Hall (cl), Meade Lux Lewis (eel), Charlie Christian (g). Israel Crosby (b).

Royal Garden Blues
Bines At Blue Note
High Society

New York, November 19, 1943
Edmond Hall (cl). Sidney De Paris (tp). Vic Dickenson (tb). James P. Johnson (p), Jimmy Shirley (g). Israel Crosby (b), Sid Catlett (d).

The Man I Love
New York. December 18. 1943
Emmett Berry (tp). Vic Dickenson (tb), Edmond Hall (cl). Eddie Heywood (p), Al Casey (g), Billy Taylor (b), Sid Catlett (d).

Rampin' In '44
Seein' Red

New York. January 25. 1944
Edmond Hall (cl), Red Norvo (vib), Teddy Wilson (p), Carl Kress (g), Johnny Williams (b).

I've Found A New Baby
New York. February 5. 1944
Sidney De Paris (tp). Wilbur De Paris (tb), Edmond Hall (cl), Clyde Hart (p), Billy Taylor (b), Gordon Powell (d)

It's Been So Long
I Can't Believe That You're In Love With Me
Big City Blues

New York, May 5, I944
Edmond Hall (cl), Harry Carney (bs), Benny Morton (tb), Don Frye (p), Everett Barksdale (g), Alvin Raglin (b), Sid Catlett (d).

It's Only A Chanty In Old Chanty Town
New York. July 20. 1944
Edmond Hall (cl), Teddy Wilson (p), Billy Taylor (b), Arthur Trappier (d).

Walkin' The Dog
Tishomingo Blues

New York. October 6 or 26, 1944
Edmond Hall (cl). Sidney De Paris (tp), Vic Dickenson (tb), James P. Johnson (p), Jimmy Shirley (g), Al Lucas (b). Arthur Trappier (d)

Caravan
The Sheik Of Araby

New.York., December 4, 1944
Irving Randolph (tp), Henderson Chambers (tb), Edmond Hall (cl), Ellis Larkins (p), Johnny Williams (b), Arthur Trappier (d).

"Несколько слов на английском":
Jack Higginbotham
Jack Higginbotham, also known as J.C - was born on the 11th May, 1906 in Social Circle, Georgia. He grew up in Cincinnati, was by profession a tailor, and was only able to dedicate himself to playing the trombone in his spare time. He eventually gave up his profession as a tailor to turn professional as a musician at the age of 18.
Higginbotham played first of all with Wes Helvey, then for 2 years with Eugene Primos and Jimmy Harrison in Buffalo. 'J.C." enjoyed the climax of his musical career between 1928 and 1931: Immediately after moving to New York he was taken on by Luis Russell, who made him the star of his renowned orchestra. In spite of this Higginbotham's career as a musician went from this point on - apart from the occassional highlight - steadily downhill. Higginbotham's decline was last but not least due to his alcohol abuse.
After the period with Luis Russell J.C. went for several months to Chick Webb, and eventually played with Fletcher Henderson's orchestra up until 1933. Alongside his various engagements the trombone player recorded several records with prominent jazzers, amongst others with King Oliver (1928), Jelly Roll Morton and Fats Waller (1929) as well as Benny Carter and Coleman Hawkins (1933). Higginbotham played with
the "Mills Blue Rhythm Band" between 1934 and 1936, and worked once again with Luis Russell who was with Louis Armstrong. "J.C.'s" solos can be admired on several of "Satch's" recordings from this period.
He played for a long period of time in the Forties with his ideal partner Red Allen, disappeared then from the scene for several years. Higginbotham led several bands in the Fifties in Boston and Cleveland, appeared regularly at the Metropole in New York between 1956 and 1959, and led his own Dixie band there in the Sixties.
He went on his first European tour with Sammy Price, appeared in Scandinavia, and worked once again briefly in 1964 with Louis Armstrong. After that things quietened down around Higginbotham. The musician died in May, 1973 in New York.
Higginbotham was considered to be the most vital of the Swing trombone players, whose strong, raucous sound on the trombone and wild outbreaks on stage were characteristic of him. Alongside Jimmy Harrison, Higginbotham contributed to the acceptance of the trombone in jazz music as a melodically capable instrument.

Edmond Hall
Edmond Hall was born on the 15th May, 1901 in New Orleans, Louisiana, the focal point of jazz music. Ed grew up in a musical family: his father was a member of a brass band, one of the typical New Orleans street-bands with a large brass section. His younger brother Herb was also a talented clarinetist, as was Ed Hall. Two other brothers also worked as musicians.
Hall taught himself first of all the guitar before he changed over to the clarinet. He began his career at the age of 17 in diverse local bands. Amongst others he played with Bud Russell, Chris Kelly and Buddy Petit.
Hall eventually joined Alonso Ross' band in 1927 - the "Deluxe Syncopators", with whom he had his recording debut in the same year. He went with Ross' band to New York where he met Cootie Williams, who also worked for Ross.
After the formation split up Hall played in the bands of Billy Fowler, Charlie Skeets and Claude Young, with whom he stayed for 5 years and also played as baritone saxophonist.
There then followed engagements with Lucky Millinder, Billy Hicks, Zutty Singleton, Joe Sullivan and Red Allen.
Hall was also highly acclaimed for his work between 1941 and 1943 in the band of the well-known pianist Teddy Wilson. The star soloist eventually formed his own formation and appeared regularly at the legendary "Cafe Society". He led a band at the end of the Forties in Boston, and later in California.
He once again caught the attention of the New York jazz scene between 1950 and 1955 - as clarinetist in Eddie Condon's club. He then replaced Barney Bigard as star soloist in Louis Armstrong's very first all-star formation and went on tour with this formation for 3 years.
The musician finally fulfilled a life-long dream and went with his wife to Accra in Ghana in 1959. Here he tried unsuccessfully to set up a jazz school. Back in New York Hall worked once again as a musician - from 1962 predominantly with Eddie Condon. The clarinetist also took part increasingly in TV. shows and appeared in Europe and also in Japan with the "Dukes of Dixieland".
During his musical career Hall also worked with music greats such as Billie Holiday, Mildred Bailey, Lionel Hampton, Coleman Hawkins, Art Tatum and Harry Belafonte. Edmond Hall died on the 11 th February, 1967 in Cambridge, Massachusetts, after a heart attack.

Spoiler:
Exact Audio Copy V0.99 prebeta 4 from 23. January 2008

EAC extraction logfile from 13. September 2010, 20:52

J.C. Higginbotham / Big City Blues (1of2)

Used drive : HL-DT-STDVD-RAM GH22NP20 Adapter: 0 ID: 0

Read mode : Secure
Utilize accurate stream : Yes
Defeat audio cache : Yes
Make use of C2 pointers : No

Read offset correction : 102
Overread into Lead-In and Lead-Out : No
Fill up missing offset samples with silence : Yes
Delete leading and trailing silent blocks : No
Null samples used in CRC calculations : Yes
Used interface : Installed external ASPI interface
Gap handling : Appended to previous track

Used output format : User Defined Encoder
Selected bitrate : 320 kBit/s
Quality : High
Add ID3 tag : No
Command line compressor : C:\Program Files\Exact Audio Copy\Flac\flac.exe
Additional command line options : -V -8 -T "artist=%a" -T "title=%t" -T "album=%g" -T "date=%y" -T "tracknumber=%n" -T "genre=%m" %s

TOC of the extracted CD

Track | Start | Length | Start sector | End sector
---------------------------------------------------------
1 | 0:00.00 | 3:28.57 | 0 | 15656
2 | 3:28.57 | 3:09.11 | 15657 | 29842
3 | 6:37.68 | 3:17.09 | 29843 | 44626
4 | 9:55.02 | 3:14.24 | 44627 | 59200
5 | 13:09.26 | 3:24.34 | 59201 | 74534
6 | 16:33.60 | 3:03.07 | 74535 | 88266
7 | 19:36.67 | 3:19.59 | 88267 | 103250
8 | 22:56.51 | 3:32.04 | 103251 | 119154
9 | 26:28.55 | 3:10.54 | 119155 | 133458
10 | 29:39.34 | 3:02.56 | 133459 | 147164
11 | 32:42.15 | 3:06.29 | 147165 | 161143
12 | 35:48.44 | 3:09.39 | 161144 | 175357
13 | 38:58.08 | 2:56.72 | 175358 | 188629
14 | 41:55.05 | 2:56.29 | 188630 | 201858
15 | 44:51.34 | 3:12.74 | 201859 | 216332
16 | 48:04.33 | 3:05.54 | 216333 | 230261
17 | 51:10.12 | 2:51.41 | 230262 | 243127
18 | 54:01.53 | 2:34.29 | 243128 | 254706
19 | 56:36.07 | 2:58.44 | 254707 | 268100
20 | 59:34.51 | 2:35.37 | 268101 | 279762
21 | 62:10.13 | 2:44.36 | 279763 | 292098
22 | 64:54.49 | 3:01.29 | 292099 | 305702

Track 1

Filename D:\music\Musicgate's rips\J.C.Higginbotham, Edmond Hall - Big City Blues (2CD) - {The Cradle Of Jazz. History}\CD1 - J.C.Higginbotham\01 - Mahogany Hall Stomp.wav

Pre-gap length 0:00:02.00

Peak level 74.9 %
Track quality 100.0 %
Test CRC 38C8436D
Copy CRC 38C8436D
Cannot be verified as accurate (confidence 1) [73215B7A], AccurateRip returned [391A4434]
Copy OK

Track 2

Filename D:\music\Musicgate's rips\J.C.Higginbotham, Edmond Hall - Big City Blues (2CD) - {The Cradle Of Jazz. History}\CD1 - J.C.Higginbotham\02 - It Should Be You.wav

Peak level 80.7 %
Track quality 100.0 %
Test CRC 556DA7EF
Copy CRC 556DA7EF
Cannot be verified as accurate (confidence 1) [58DC947B], AccurateRip returned [7A2F25CF]
Copy OK

Track 3

Filename D:\music\Musicgate's rips\J.C.Higginbotham, Edmond Hall - Big City Blues (2CD) - {The Cradle Of Jazz. History}\CD1 - J.C.Higginbotham\03 - Swing Out.wav

Peak level 85.4 %
Track quality 100.0 %
Test CRC AA9EC8F9
Copy CRC AA9EC8F9
Cannot be verified as accurate (confidence 1) [13D61F89], AccurateRip returned [F7FE9FAB]
Copy OK

Track 4

Filename D:\music\Musicgate's rips\J.C.Higginbotham, Edmond Hall - Big City Blues (2CD) - {The Cradle Of Jazz. History}\CD1 - J.C.Higginbotham\04 - Feelin' the Spirit.wav

Peak level 89.2 %
Track quality 100.0 %
Test CRC 6056F3B0
Copy CRC 6056F3B0
Cannot be verified as accurate (confidence 1) [317B2831], AccurateRip returned [8DA0A73F]
Copy OK

Track 5

Filename D:\music\Musicgate's rips\J.C.Higginbotham, Edmond Hall - Big City Blues (2CD) - {The Cradle Of Jazz. History}\CD1 - J.C.Higginbotham\05 - Jersey Lightning.wav

Peak level 89.4 %
Track quality 100.0 %
Test CRC 1DE773F8
Copy CRC 1DE773F8
Cannot be verified as accurate (confidence 1) [070F50DC], AccurateRip returned [F8D3574E]
Copy OK

Track 6

Filename D:\music\Musicgate's rips\J.C.Higginbotham, Edmond Hall - Big City Blues (2CD) - {The Cradle Of Jazz. History}\CD1 - J.C.Higginbotham\06 - St. Louis Blues.wav

Peak level 88.8 %
Track quality 100.0 %
Test CRC 1ECF36BC
Copy CRC 1ECF36BC
Cannot be verified as accurate (confidence 1) [5C291690], AccurateRip returned [49FD53A4]
Copy OK

Track 7

Filename D:\music\Musicgate's rips\J.C.Higginbotham, Edmond Hall - Big City Blues (2CD) - {The Cradle Of Jazz. History}\CD1 - J.C.Higginbotham\07 - Doctor Blues.wav

Peak level 73.1 %
Track quality 100.0 %
Test CRC B12BFDA4
Copy CRC B12BFDA4
Cannot be verified as accurate (confidence 1) [29E74166], AccurateRip returned [314EB904]
Copy OK

Track 8

Filename D:\music\Musicgate's rips\J.C.Higginbotham, Edmond Hall - Big City Blues (2CD) - {The Cradle Of Jazz. History}\CD1 - J.C.Higginbotham\08 - Saratoga Shout.wav

Peak level 89.1 %
Track quality 100.0 %
Test CRC E84A2368
Copy CRC E84A2368
Cannot be verified as accurate (confidence 1) [042773AF], AccurateRip returned [DBBA4259]
Copy OK

Track 9

Filename D:\music\Musicgate's rips\J.C.Higginbotham, Edmond Hall - Big City Blues (2CD) - {The Cradle Of Jazz. History}\CD1 - J.C.Higginbotham\09 - Give Me Your Telephone Number.wav

Peak level 84.4 %
Track quality 100.0 %
Test CRC 5DA9C453
Copy CRC 5DA9C453
Cannot be verified as accurate (confidence 1) [69C3A498], AccurateRip returned [FDDE648E]
Copy OK

Track 10

Filename D:\music\Musicgate's rips\J.C.Higginbotham, Edmond Hall - Big City Blues (2CD) - {The Cradle Of Jazz. History}\CD1 - J.C.Higginbotham\10 - Sugar Hill Function.wav

Peak level 81.4 %
Track quality 100.0 %
Test CRC B959ECB8
Copy CRC B959ECB8
Cannot be verified as accurate (confidence 1) [8E2B7A0D], AccurateRip returned [687B27CE]
Copy OK

Track 11

Filename D:\music\Musicgate's rips\J.C.Higginbotham, Edmond Hall - Big City Blues (2CD) - {The Cradle Of Jazz. History}\CD1 - J.C.Higginbotham\11 - You Might Get Better, But You'll Never Get Well.wav

Peak level 78.0 %
Track quality 100.0 %
Test CRC 5032266A
Copy CRC 5032266A
Cannot be verified as accurate (confidence 1) [8DA9D2DA], AccurateRip returned [A5807ACA]
Copy OK

Track 12

Filename D:\music\Musicgate's rips\J.C.Higginbotham, Edmond Hall - Big City Blues (2CD) - {The Cradle Of Jazz. History}\CD1 - J.C.Higginbotham\12 - On Revival Day.wav

Peak level 74.7 %
Track quality 100.0 %
Test CRC EC6FC54D
Copy CRC EC6FC54D
Cannot be verified as accurate (confidence 1) [52F7EA86], AccurateRip returned [3C0E7778]
Copy OK

Track 13

Filename D:\music\Musicgate's rips\J.C.Higginbotham, Edmond Hall - Big City Blues (2CD) - {The Cradle Of Jazz. History}\CD1 - J.C.Higginbotham\13 - Muggin' Lightly.wav

Peak level 86.7 %
Track quality 99.9 %
Test CRC 8A5B3E03
Copy CRC 8A5B3E03
Cannot be verified as accurate (confidence 1) [EB3DF180], AccurateRip returned [61DFDC28]
Copy OK

Track 14

Filename D:\music\Musicgate's rips\J.C.Higginbotham, Edmond Hall - Big City Blues (2CD) - {The Cradle Of Jazz. History}\CD1 - J.C.Higginbotham\14 - Ease on Down.wav

Peak level 83.9 %
Track quality 100.0 %
Test CRC 8BC2ADF5
Copy CRC 8BC2ADF5
Cannot be verified as accurate (confidence 1) [7B532D93], AccurateRip returned [384BEA0D]
Copy OK

Track 15

Filename D:\music\Musicgate's rips\J.C.Higginbotham, Edmond Hall - Big City Blues (2CD) - {The Cradle Of Jazz. History}\CD1 - J.C.Higginbotham\15 - Casa Loma Stomp.wav

Peak level 96.9 %
Track quality 100.0 %
Test CRC F9B7BFAC
Copy CRC F9B7BFAC
Cannot be verified as accurate (confidence 1) [A7EBB2F6], AccurateRip returned [C59FA0B8]
Copy OK

Track 16

Filename D:\music\Musicgate's rips\J.C.Higginbotham, Edmond Hall - Big City Blues (2CD) - {The Cradle Of Jazz. History}\CD1 - J.C.Higginbotham\16 - Symphony in Riffs.wav

Peak level 88.7 %
Track quality 100.0 %
Test CRC B4CEC197
Copy CRC B4CEC197
Cannot be verified as accurate (confidence 1) [C00E7520], AccurateRip returned [F8FFDDFA]
Copy OK

Track 17

Filename D:\music\Musicgate's rips\J.C.Higginbotham, Edmond Hall - Big City Blues (2CD) - {The Cradle Of Jazz. History}\CD1 - J.C.Higginbotham\17 - Roll Along, Prairie Moon.wav

Peak level 86.4 %
Track quality 100.0 %
Test CRC 03A74088
Copy CRC 03A74088
Cannot be verified as accurate (confidence 1) [A92979B6], AccurateRip returned [836DC596]
Copy OK

Track 18

Filename D:\music\Musicgate's rips\J.C.Higginbotham, Edmond Hall - Big City Blues (2CD) - {The Cradle Of Jazz. History}\CD1 - J.C.Higginbotham\18 - That's How I Feel Today.wav

Peak level 81.1 %
Track quality 99.9 %
Test CRC E6167917
Copy CRC E6167917
Cannot be verified as accurate (confidence 1) [4F551CCD], AccurateRip returned [A411EFBF]
Copy OK

Track 19

Filename D:\music\Musicgate's rips\J.C.Higginbotham, Edmond Hall - Big City Blues (2CD) - {The Cradle Of Jazz. History}\CD1 - J.C.Higginbotham\19 - I Double Dare You.wav

Peak level 88.6 %
Track quality 100.0 %
Test CRC 8FC35097
Copy CRC 8FC35097
Cannot be verified as accurate (confidence 1) [7BB1E3F7], AccurateRip returned [4D43D5D9]
Copy OK

Track 20

Filename D:\music\Musicgate's rips\J.C.Higginbotham, Edmond Hall - Big City Blues (2CD) - {The Cradle Of Jazz. History}\CD1 - J.C.Higginbotham\20 - Let That Be a Lesson to You.wav

Peak level 77.8 %
Track quality 100.0 %
Test CRC 235BF257
Copy CRC 235BF257
Cannot be verified as accurate (confidence 1) [BF5B880F], AccurateRip returned [FD773BE3]
Copy OK

Track 21

Filename D:\music\Musicgate's rips\J.C.Higginbotham, Edmond Hall - Big City Blues (2CD) - {The Cradle Of Jazz. History}\CD1 - J.C.Higginbotham\21 - When the Saints Go Marching In.wav

Peak level 85.0 %
Track quality 100.0 %
Test CRC 1FCE97C3
Copy CRC 1FCE97C3
Cannot be verified as accurate (confidence 1) [4E0F0F85], AccurateRip returned [418BF6D3]
Copy OK

Track 22

Filename D:\music\Musicgate's rips\J.C.Higginbotham, Edmond Hall - Big City Blues (2CD) - {The Cradle Of Jazz. History}\CD1 - J.C.Higginbotham\22 - The Sheik of Araby.wav

Peak level 87.5 %
Track quality 100.0 %
Test CRC 436290D2
Copy CRC 436290D2
Cannot be verified as accurate (confidence 1) [E1357736], AccurateRip returned [8709CC98]
Copy OK

No tracks could be verified as accurate
You may have a different pressing from the one(s) in the database

No errors occurred

End of status report
=========================
Exact Audio Copy V0.99 prebeta 4 from 23. January 2008

EAC extraction logfile from 14. September 2010, 6:40

Edmond Hall / Big City Blues (2of2)

Used drive : HL-DT-STDVD-RAM GH22NP20 Adapter: 0 ID: 0

Read mode : Secure
Utilize accurate stream : Yes
Defeat audio cache : Yes
Make use of C2 pointers : No

Read offset correction : 102
Overread into Lead-In and Lead-Out : No
Fill up missing offset samples with silence : Yes
Delete leading and trailing silent blocks : No
Null samples used in CRC calculations : Yes
Used interface : Installed external ASPI interface
Gap handling : Appended to previous track

Used output format : User Defined Encoder
Selected bitrate : 320 kBit/s
Quality : High
Add ID3 tag : No
Command line compressor : C:\Program Files\Exact Audio Copy\Flac\flac.exe
Additional command line options : -V -8 -T "artist=%a" -T "title=%t" -T "album=%g" -T "date=%y" -T "tracknumber=%n" -T "genre=%m" %s

TOC of the extracted CD

Track | Start | Length | Start sector | End sector
---------------------------------------------------------
1 | 0:00.00 | 4:20.25 | 0 | 19524
2 | 4:20.25 | 4:13.02 | 19525 | 38501
3 | 8:33.27 | 4:13.53 | 38502 | 57529
4 | 12:47.05 | 3:54.29 | 57530 | 75108
5 | 16:41.34 | 4:08.25 | 75109 | 93733
6 | 20:49.59 | 4:13.66 | 93734 | 112774
7 | 25:03.50 | 4:05.47 | 112775 | 131196
8 | 29:09.22 | 3:12.48 | 131197 | 145644
9 | 32:21.70 | 3:57.27 | 145645 | 163446
10 | 36:19.22 | 4:13.54 | 163447 | 182475
11 | 40:33.01 | 2:51.07 | 182476 | 195307
12 | 43:24.08 | 3:07.59 | 195308 | 209391
13 | 46:31.67 | 3:02.07 | 209392 | 223048
14 | 49:33.74 | 4:12.70 | 223049 | 242018
15 | 53:46.69 | 2:42.27 | 242019 | 254195
16 | 56:29.21 | 4:31.69 | 254196 | 274589
17 | 61:01.15 | 4:33.33 | 274590 | 295097
18 | 65:34.48 | 2:27.41 | 295098 | 306163
19 | 68:02.14 | 2:30.57 | 306164 | 317470

Track 1

Filename D:\music\Musicgate's rips\J.C.Higginbotham, Edmond Hall - Big City Blues (2CD) - {The Cradle Of Jazz. History}\CD2 - Edmond Hall\01 - Jamin' in Four.wav

Pre-gap length 0:00:02.00

Peak level 56.4 %
Track quality 99.9 %
Test CRC 6B9459D4
Copy CRC 6B9459D4
Accurately ripped (confidence 1) [DCA0D773]
Copy OK

Track 2

Filename D:\music\Musicgate's rips\J.C.Higginbotham, Edmond Hall - Big City Blues (2CD) - {The Cradle Of Jazz. History}\CD2 - Edmond Hall\02 - Edmond Hall Blues.wav

Pre-gap length 0:00:01.60

Peak level 45.0 %
Track quality 99.9 %
Test CRC 2B649CCC
Copy CRC 2B649CCC
Accurately ripped (confidence 1) [D18200B2]
Copy OK

Track 3

Filename D:\music\Musicgate's rips\J.C.Higginbotham, Edmond Hall - Big City Blues (2CD) - {The Cradle Of Jazz. History}\CD2 - Edmond Hall\03 - Profoundly Blue No. 2.wav

Pre-gap length 0:00:01.60

Peak level 58.6 %
Track quality 99.9 %
Test CRC D64EA410
Copy CRC D64EA410
Accurately ripped (confidence 1) [2C934622]
Copy OK

Track 4

Filename D:\music\Musicgate's rips\J.C.Higginbotham, Edmond Hall - Big City Blues (2CD) - {The Cradle Of Jazz. History}\CD2 - Edmond Hall\04 - Profoundly Blue No. 2.wav

Pre-gap length 0:00:01.60

Peak level 63.5 %
Track quality 100.0 %
Test CRC B54A3869
Copy CRC B54A3869
Accurately ripped (confidence 1) [1BBFB753]
Copy OK

Track 5

Filename D:\music\Musicgate's rips\J.C.Higginbotham, Edmond Hall - Big City Blues (2CD) - {The Cradle Of Jazz. History}\CD2 - Edmond Hall\05 - Royal Garden Blues.wav

Pre-gap length 0:00:01.60

Peak level 61.8 %
Track quality 100.0 %
Test CRC 7E8CE029
Copy CRC 7E8CE029
Accurately ripped (confidence 1) [739256E6]
Copy OK

Track 6

Filename D:\music\Musicgate's rips\J.C.Higginbotham, Edmond Hall - Big City Blues (2CD) - {The Cradle Of Jazz. History}\CD2 - Edmond Hall\06 - Blues at Blue Note.wav

Pre-gap length 0:00:01.60

Peak level 52.5 %
Track quality 100.0 %
Test CRC A5FDFB5A
Copy CRC A5FDFB5A
Accurately ripped (confidence 1) [6692D1B6]
Copy OK

Track 7

Filename D:\music\Musicgate's rips\J.C.Higginbotham, Edmond Hall - Big City Blues (2CD) - {The Cradle Of Jazz. History}\CD2 - Edmond Hall\07 - High Society.wav

Pre-gap length 0:00:01.60

Peak level 58.4 %
Track quality 100.0 %
Test CRC 04D3BF81
Copy CRC 04D3BF81
Accurately ripped (confidence 1) [6213F715]
Copy OK

Track 8

Filename D:\music\Musicgate's rips\J.C.Higginbotham, Edmond Hall - Big City Blues (2CD) - {The Cradle Of Jazz. History}\CD2 - Edmond Hall\08 - The Man I Love.wav

Pre-gap length 0:00:01.60

Peak level 52.5 %
Track quality 100.0 %
Test CRC 53B4E2D0
Copy CRC 53B4E2D0
Accurately ripped (confidence 1) [438B7C25]
Copy OK

Track 9

Filename D:\music\Musicgate's rips\J.C.Higginbotham, Edmond Hall - Big City Blues (2CD) - {The Cradle Of Jazz. History}\CD2 - Edmond Hall\09 - Rompin' in '44.wav

Pre-gap length 0:00:01.60

Peak level 46.2 %
Track quality 100.0 %
Test CRC B355B74F
Copy CRC B355B74F
Accurately ripped (confidence 1) [293E31E0]
Copy OK

Track 10

Filename D:\music\Musicgate's rips\J.C.Higginbotham, Edmond Hall - Big City Blues (2CD) - {The Cradle Of Jazz. History}\CD2 - Edmond Hall\10 - Seein' Red.wav

Pre-gap length 0:00:01.60

Peak level 46.2 %
Track quality 100.0 %
Test CRC 00FC1ED1
Copy CRC 00FC1ED1
Accurately ripped (confidence 1) [BD69B368]
Copy OK

Track 11

Filename D:\music\Musicgate's rips\J.C.Higginbotham, Edmond Hall - Big City Blues (2CD) - {The Cradle Of Jazz. History}\CD2 - Edmond Hall\11 - I've Found a New Baby.wav

Pre-gap length 0:00:01.60

Peak level 57.5 %
Track quality 100.0 %
Test CRC 8A9E5B08
Copy CRC 8A9E5B08
Accurately ripped (confidence 1) [78B52CB1]
Copy OK

Track 12

Filename D:\music\Musicgate's rips\J.C.Higginbotham, Edmond Hall - Big City Blues (2CD) - {The Cradle Of Jazz. History}\CD2 - Edmond Hall\12 - It's Been So Long.wav

Pre-gap length 0:00:01.60

Peak level 61.1 %
Track quality 100.0 %
Test CRC 7D0FBEE2
Copy CRC 7D0FBEE2
Accurately ripped (confidence 1) [33C28A9E]
Copy OK

Track 13

Filename D:\music\Musicgate's rips\J.C.Higginbotham, Edmond Hall - Big City Blues (2CD) - {The Cradle Of Jazz. History}\CD2 - Edmond Hall\13 - I Can't Believe That You're in Love With Me.wav

Pre-gap length 0:00:01.60

Peak level 60.0 %
Track quality 100.0 %
Test CRC B61A805E
Copy CRC B61A805E
Accurately ripped (confidence 1) [5DD3E0C6]
Copy OK

Track 14

Filename D:\music\Musicgate's rips\J.C.Higginbotham, Edmond Hall - Big City Blues (2CD) - {The Cradle Of Jazz. History}\CD2 - Edmond Hall\14 - Big City Blues.wav

Pre-gap length 0:00:01.60

Peak level 44.4 %
Track quality 100.0 %
Test CRC 7DCD868A
Copy CRC 7DCD868A
Accurately ripped (confidence 1) [21E59AB0]
Copy OK

Track 15

Filename D:\music\Musicgate's rips\J.C.Higginbotham, Edmond Hall - Big City Blues (2CD) - {The Cradle Of Jazz. History}\CD2 - Edmond Hall\15 - It's Only a Chanty in Old Chanty Town.wav

Pre-gap length 0:00:01.60

Peak level 54.1 %
Track quality 99.9 %
Test CRC A7712C20
Copy CRC A7712C20
Accurately ripped (confidence 1) [FFB0D27C]
Copy OK

Track 16

Filename D:\music\Musicgate's rips\J.C.Higginbotham, Edmond Hall - Big City Blues (2CD) - {The Cradle Of Jazz. History}\CD2 - Edmond Hall\16 - Walkin' the Dog.wav

Pre-gap length 0:00:01.60

Peak level 53.4 %
Track quality 100.0 %
Test CRC 85F35AC0
Copy CRC 85F35AC0
Accurately ripped (confidence 1) [593A70DB]
Copy OK

Track 17

Filename D:\music\Musicgate's rips\J.C.Higginbotham, Edmond Hall - Big City Blues (2CD) - {The Cradle Of Jazz. History}\CD2 - Edmond Hall\17 - Tishomingo Blues.wav

Pre-gap length 0:00:01.60

Peak level 63.4 %
Track quality 100.0 %
Test CRC 8509F696
Copy CRC 8509F696
Accurately ripped (confidence 1) [EA1B0FA6]
Copy OK

Track 18

Filename D:\music\Musicgate's rips\J.C.Higginbotham, Edmond Hall - Big City Blues (2CD) - {The Cradle Of Jazz. History}\CD2 - Edmond Hall\18 - Caravan.wav

Pre-gap length 0:00:01.60

Peak level 54.1 %
Track quality 100.0 %
Test CRC 5F1B748B
Copy CRC 5F1B748B
Accurately ripped (confidence 1) [B0F93A0A]
Copy OK

Track 19

Filename D:\music\Musicgate's rips\J.C.Higginbotham, Edmond Hall - Big City Blues (2CD) - {The Cradle Of Jazz. History}\CD2 - Edmond Hall\19 - The Sheik of Araby.wav

Pre-gap length 0:00:01.60

Peak level 53.8 %
Track quality 99.9 %
Test CRC F544BA29
Copy CRC F544BA29
Accurately ripped (confidence 1) [BE3A4AC2]
Copy OK

All tracks accurately ripped

No errors occurred

End of status report
"Лог проверки качества":

avatar
Musicgate
Аксакал
Аксакал

Posts : 1018
Join date : 2010-09-01

View user profile

Back to top Go down

View previous topic View next topic Back to top

- Similar topics

 
Permissions in this forum:
You cannot reply to topics in this forum