Quincy Jones

View previous topic View next topic Go down

Quincy Jones

Post by Musicgate on Mon Oct 18, 2010 3:22 pm

Quincy Jones - Back on the Block (1989, Qwest)



Жанр: Crossover Jazz, fusion, Soul-Jazz
Дата выпуска: 1989
Производитель диска, страна: Qwest records. 926 020-2
Продолжительность: 57:54
Источник: Моя коллекция

Трэклист:
1. Prologue (20's Rap) (Big Daddy Kane, Jones) - 1:04
Guests - Big Daddy Kane
2. Back on the Block (Big Daddy Kane, Garrett, Ice T, Jones, Kool Moe Dee, Mel, Melle, Semenya, Temperton) - 6:34
Guests - Ice-T, Melle Mel, Koll Moe Dee, Big Daddy Kane
3. I Don't Go for That (Prince) - 5:11
Guests - Herbie Hancock
4. I'll Be Good to You (Johnson, Johnson, Sam) - 4:54
Guests - Ray Charles, Chaka Khan
5. The Verb to Be (Introduction to Wee B. Dooinit) (Warren) - 0:29
Guests - Mervyn Warren
6. Wee B. Dooinit (Acapella Party by the Human Bean Band) (Garrett, Jones, Prince) - 3:34
Guests - Bobby Mc Ferrin
7. The Places You Find Love (Ballard, Magness, Semenya) - 6:25
Guests - Herbie Hancock, Chaka Khan
8. Jazz Corner of the World (Introduction to Birdland) (Big Daddy Kane, Jones, Kool Moe Dee) - 2:54
Guests - Miles Davis, George Benson, Sara Waughan, Dizzy Gillespie, James Moddy, Koll Moe Dee, Big Daddy Kane
9. Birdland (Zawinul) - 5:33
Guests - George Benson, D. Gillespie, Miles Davis, James Moody
10. Setembro (Brazilian Wedding Song) (Lins, Peranzzetta) - 5:05
Guests - Herbie Hancock, Geroger Benson, George Duke, Take 6
11. One Man Woman (Garrett, Prince, Roberts) - 3:44
Guests - Sheila E, George Duke
12. Tomorrow (A Better You, Better Me) (Garrett, Johnson, Johnson) - 4:46
13. Prelude to the Garden (Calandrelli) - 0:54
14. The Secret Garden (Sweet Seduction Suite) (DeBarge, Garrett, Jones, Temperton) - 6:41
Guests - El Debarge, James Ingram, Al B. Sure!, Barry White

Об альбоме:
http://www.rollingstone.com/artists/quincyjones/albums/album/197670/review/5942967/back_on_the_block

Рейтинги и премии:
Billboard Music Charts -
1989: Billboard 200 – #9
1989: Top Contemporary Jazz Albums – #1
1989: Top R&B/Hip-Hop Albums – #1

Издания:
1989 CD Qwest 26020
1989 LP Qwest 1-26020
2005 CD Quest/UMG 000515402
1989 CS Qwest 26020

Back on the Block is a 1989 Grammy Award-winning studio album produced by the American music impresario, conductor, record producer, musical arranger, film composer and trumpeter.[1] It features many famous and important musicians and singers, including Ella Fitzgerald, Miles Davis, Sarah Vaughan, Dizzy Gillespie, George Benson, Luther Vandross, Ice-T, Tevin Campbell and Ray Charles.
Fitzgerald had previously recorded with Jones on her 1963 album Ella and Basie!, which is revered as one of her greatest recordings. Fitzgerald is featured on the tracks Jazz Corner of the World (where she is introduced in rap style by Big Daddy Kane), Birdland and Wee B. Dooinit, where she scats alongside Sarah Vaughan and Bobby McFerrin.

Spoiler:

Аудио кодек: FLAC
Тип рипа: (tracks + .cue)
Битрейт аудио: lossless
Включает: Full artwork, png

Exact Audio Copy V0.99 prebeta 4 from 23. January 2008

EAC extraction logfile from 13. November 2008, 23:43

Quincy Jones / Back on the Block

Used drive : PIONEER DVD-RW DVR-112D Adapter: 0 ID: 0

Read mode : Secure
Utilize accurate stream : Yes
Defeat audio cache : Yes
Make use of C2 pointers : No

Read offset correction : 48
Overread into Lead-In and Lead-Out : No
Fill up missing offset samples with silence : Yes
Delete leading and trailing silent blocks : No
Null samples used in CRC calculations : Yes
Used interface : Installed external ASPI interface
Gap handling : Appended to previous track

Used output format : User Defined Encoder
Selected bitrate : 320 kBit/s
Quality : High
Add ID3 tag : Yes
Command line compressor : C:\Program Files\Exact Audio Copy\Flac\flac.exe
Additional command line options : -V -8 -T "artist=%a" -T "title=%t" -T "album=%g" -T "date=%y" -T "tracknumber=%n" -T "genre=%m" %s

TOC of the extracted CD

Track | Start | Length | Start sector | End sector
---------------------------------------------------------
1 | 0:00.00 | 1:04.65 | 0 | 4864
2 | 1:04.65 | 6:34.10 | 4865 | 34424
3 | 7:39.00 | 5:11.40 | 34425 | 57789
4 | 12:50.40 | 4:54.60 | 57790 | 79899
5 | 17:45.25 | 0:31.37 | 79900 | 82261
6 | 18:16.62 | 3:31.58 | 82262 | 98144
7 | 21:48.45 | 6:27.72 | 98145 | 127241
8 | 28:16.42 | 2:53.43 | 127242 | 140259
9 | 31:10.10 | 5:33.72 | 140260 | 165306
10 | 36:44.07 | 5:04.60 | 165307 | 188166
11 | 41:48.67 | 3:44.38 | 188167 | 205004
12 | 45:33.30 | 4:46.65 | 205005 | 226519
13 | 50:20.20 | 0:54.02 | 226520 | 230571
14 | 51:14.22 | 6:40.15 | 230572 | 260586

Track 1

Filename D:\music\rip\Quincy Jones - Back on the Block (1989, Qwest)\01 - Prologue (2 Q's Rap).wav

Pre-gap length 0:00:02.00

Peak level 82.3 %
Track quality 100.0 %
Test CRC CEB19875
Copy CRC CEB19875
Accurately ripped (confidence 61) [ADAB55DA]
Copy OK

Track 2

Filename D:\music\rip\Quincy Jones - Back on the Block (1989, Qwest)\02 - Back on the Block (feat. Ice-T, Melle Mel, Koll Moe Dee, Big Daddy Kane).wav

Peak level 91.8 %
Track quality 99.9 %
Test CRC ADB38361
Copy CRC ADB38361
Accurately ripped (confidence 57) [5800FE3B]
Copy OK

Track 3

Filename D:\music\rip\Quincy Jones - Back on the Block (1989, Qwest)\03 - I Don't Go for That (feat. Herbie Hancock).wav

Peak level 90.1 %
Track quality 100.0 %
Test CRC EBE68DD0
Copy CRC EBE68DD0
Accurately ripped (confidence 56) [F6F7E190]
Copy OK

Track 4

Filename D:\music\rip\Quincy Jones - Back on the Block (1989, Qwest)\04 - I'll Be Good to You (feat. Ray Charles, Chaka Khan).wav

Pre-gap length 0:00:00.06

Peak level 87.9 %
Track quality 100.0 %
Test CRC A57E43C8
Copy CRC A57E43C8
Accurately ripped (confidence 57) [D34AD6CD]
Copy OK

Track 5

Filename D:\music\rip\Quincy Jones - Back on the Block (1989, Qwest)\05 - The Verb to Be.wav

Peak level 84.3 %
Track quality 100.0 %
Test CRC 79FF67E5
Copy CRC 79FF67E5
Accurately ripped (confidence 59) [AF33B865]
Copy OK

Track 6

Filename D:\music\rip\Quincy Jones - Back on the Block (1989, Qwest)\06 - Wee B. Dooinit (feat. Bobby Mc Ferrin).wav

Peak level 100.0 %
Track quality 100.0 %
Test CRC CFFE14D7
Copy CRC CFFE14D7
Accurately ripped (confidence 59) [9DE24DE8]
Copy OK

Track 7

Filename D:\music\rip\Quincy Jones - Back on the Block (1989, Qwest)\07 - The Places You Find Love (feat. Herbie Hancock, Chaka Khan).wav

Pre-gap length 0:00:01.40

Peak level 89.1 %
Track quality 100.0 %
Test CRC 420EE7B7
Copy CRC 420EE7B7
Accurately ripped (confidence 58) [29829129]
Copy OK

Track 8

Filename D:\music\rip\Quincy Jones - Back on the Block (1989, Qwest)\08 - Jazz Corner of the Word (feat. Miles Davis, George Benson, Sarha Baughan, Dizzy Gillespie, James Moddy, Koll Moe Dee, Big Daddy Kane).wav

Pre-gap length 0:00:03.26

Peak level 68.4 %
Track quality 100.0 %
Test CRC 7D71F9F3
Copy CRC 7D71F9F3
Accurately ripped (confidence 58) [38CC837E]
Copy OK

Track 9

Filename D:\music\rip\Quincy Jones - Back on the Block (1989, Qwest)\09 - Birdland (feat. George Benson, D. Gillespie, Miles Davis, James Moody).wav

Peak level 96.5 %
Track quality 100.0 %
Test CRC C363BE33
Copy CRC C363BE33
Accurately ripped (confidence 57) [AEF025F7]
Copy OK

Track 10

Filename D:\music\rip\Quincy Jones - Back on the Block (1989, Qwest)\10 - Setembro (Brazilian Wedding Song) (feat. Herbie Hancock, Geroger Benson, George Duke, Take 6).wav

Peak level 94.5 %
Track quality 100.0 %
Test CRC D26B0354
Copy CRC D26B0354
Accurately ripped (confidence 57) [6019BC45]
Copy OK

Track 11

Filename D:\music\rip\Quincy Jones - Back on the Block (1989, Qwest)\11 - One Man Woman (feat. Sheila E, George Duke).wav

Pre-gap length 0:00:01.06

Peak level 100.0 %
Track quality 100.0 %
Test CRC CCF7EE26
Copy CRC CCF7EE26
Accurately ripped (confidence 57) [48B28EFA]
Copy OK

Track 12

Filename D:\music\rip\Quincy Jones - Back on the Block (1989, Qwest)\12 - Tomorrow (A Better You, Better Me).wav

Pre-gap length 0:00:00.10

Peak level 100.0 %
Track quality 99.9 %
Test CRC 213B0266
Copy CRC 213B0266
Accurately ripped (confidence 59) [FA0C8525]
Copy OK

Track 13

Filename D:\music\rip\Quincy Jones - Back on the Block (1989, Qwest)\13 - Prelude to the Garden.wav

Peak level 49.7 %
Track quality 100.0 %
Test CRC 603BE2DA
Copy CRC 603BE2DA
Accurately ripped (confidence 59) [3528C5CA]
Copy OK

Track 14

Filename D:\music\rip\Quincy Jones - Back on the Block (1989, Qwest)\14 - The Secret Garden (feat. El Debarge, James Ingram, Al B. Sure!, Barry White).wav

Peak level 100.0 %
Track quality 100.0 %
Test CRC A2A0F7CA
Copy CRC A2A0F7CA
Accurately ripped (confidence 56) [28AC7471]
Copy OK

All tracks accurately ripped

No errors occurred

End of status report

avatar
Musicgate
Аксакал
Аксакал

Posts : 1018
Join date : 2010-09-01

View user profile

Back to top Go down

View previous topic View next topic Back to top

- Similar topics

 
Permissions in this forum:
You cannot reply to topics in this forum