James Taylor (Acid Jazz, Funk)

View previous topic View next topic Go down

James Taylor (Acid Jazz, Funk)

Post by Musicgate on Mon Oct 18, 2010 2:55 pm

James Taylor Quartet - Hammond-ology (2001)





Жанр: Acid Jazz, Funk
Дата выпуска: Oct 1, 2001
Производитель диска: Sanctuary099
Страна исполнителя: UK
Продолжительность: 73:30 + 74:38
Источник:Моя коллекция
Ripped by: Musicgate

Трэклист:
CD1

1. Blow Up - 3:54
2. Mission Impossible - 3:22
3. Car Chase - 2:46
4. The Spyder - 3:00
5. Theme from Starsky and Hutch - 5:56
6. Jungle Strut - 4:26
7. Indian Summer - 4:11
8. It Doesn't Matter - 5:04 (Vocals - Cleveland Watkiss)
9. Breakout - 4:56
10. Down by the River - 4:13
11. Grooving Home - 4:02
12. Love the Life - 4:41 (Vocals - Noel McKoy)
13. Killing Time - 4:53 Vocals - Piece Of Mind
14. Shelter - 3:56 Vocals - Rose Windross
15. Hope and Pray - 3:55 Vocals - Noel McKoy
16. Theme from the Tomorrow People - 4:58
17. Higher World - 5:18
18. See a Brighter Day - 4:00 Vocals - Noel McKoy

CD2
19. Love the Life [Revisited Edit] - 3:59 Vocals - Noel McKoy
20. Stepping into My Life - 4:35 Vocals - Alison Limerick
21. The Vanishing Point - 5:32
22. Europa - 5:03
23. Love Will Keep Us Together [Ian Green Radio Mix] - 3:44 Vocals - Alison Limerick
24. Whole Lotta Love - 4:40
25. In the Hand of the Inevitable - 4:53
26. Creation (Fanfare For a 3rd Millenium) - 4:15
27. Theme from Dirty Harry - 4:34
28. Austin's Theme [From Austin Powers: International Man of Mystery] - 3:38
29. Valhalla - 3:47
30. Leads Me Back to You - 5:07 Vocals - Yvonne Yanney
31. Decoding the Pyramids - 5:56
32. Mr C. - 5:46
33. Senouci - 5:37
34. Faster Pussycat - 3:32
35. Message from Sicily - 3:46

Amazon.co.uk Review
Hammond-ology is, at last, a truly comprehensive JTQ anthology: 35 tracks, including material from all the group's albums,
culminating in a new and previously unreleased track. The disintegration of Medway modernists the Prisoners in 1985 saw
shaven-headed Hammond hammerer James Taylor form instrumental mod squad the James Taylor Quartet. Their early material consisted of Booker T-inspired groovy movie soundtracks and kitsch TV themes, typified here by "Blow Up" and "Mission Impossible". As Taylor became increasingly inspired by soul jazz pioneers such as Jimmy Smith and Brother Jack McDuff, he gradually piloted the band in a funkier direction. This transition into soul jazz territory, with added brass and percussion, is exemplified by the hyper-tweaked wah-wah and afro-funk of "Starsky and Hutch", and a frantic reading of Gene Ammons "Jungle Strut". It was thanks to these funky organ grooves that JTQ soon found themselves figureheads of London's burgeoning acid-jazz scene. In an attempt to tinker with the formula, the chaps recorded their 1993 album, Supernatural Feeling with--shock! horror!--a vocalist: the rasping tonsil-led Noel McKoy, scoring a chart smash with "Love the Life". Since then, JTQ have generally stuck to their urban jazz imprint, with the occasional vocal foray. --Chris D King

Album Description
There are many JTQ compilations but this is the first time a truly comprehensive anthology, covering material from all the
group's albums, has been put together. Hammond-Ology features 35 tracks, including all the favourites like "Blow Up",
"Mission Impossible", and "Theme From Starsky & Hutch". It culminates in a new and previously unreleased track, "Message From Sicily", which gives a taste of the brand new studio album to be released by Sanctuary Records in 2002. At the centre of JTQ is Hammond ace James Taylor, who has lent his distinctive sound to such musical giants as U2, Manic Street Preachers, Tom Jones and Nitin Sawhney.

It's All that ! And More!, 16 Mar 2004 By "dj-acidjazz"

Starsky & Hutch Theme, Theme from Dirty Harry, Mission Impossible. The Album has from the outset got " Cool " "funky " and
buy me I am cool & funky written all over it!! The feel of the first of the 2 CD's is spies; sports cars; gadgets & retro soundtracks !
This band have been doing their own thing around the world for well over 15years and this album is as the title suggests a
bite size feast of their best moments. This album is worth getting just for the one track you may have heard of. This double
CD covers myriad of music genres -Rock; Funk; Jazz ; Soul and then mashes them through a Hammond organ to produce a unique flavor of music that is live, raw & funkified. I think the music press probably came up with the term Acid Jazz AFTER listening to JTQ. The big hits are all here, ones that are instantly recognisable even to a non JTQ fan, believe me. Track 1 - "Blow Up" a reworked version of Herbie Hancock's , " Bring down the birds " or to you & me the 90's hit " Groove is in the heart " has that " oh that's where I heard it " feel to it. Blow Up was the band's first released track back in 1987! Be prepared the pace is fast and furious especially CD 1.
The Big anthems for me that also bring out some of UK's finest musicians like saxophonist Steve Williamson on the track "
Grooving Home ", Noel Mckoy on "Love the Life "and Alison Limerick on " Love will keep us together "
Certainly CD 2 holds the maturity of the tracks with the more commercially successful tracks. These include the corker of a
cover of Led Zeppelin's , "Whole Lotta Love" The clever thing about this album is the choice of having the B sides of the Hits included, like the swinging "Down by the River" . All in all a great album that is packed to the teeth with music ( 35 tracks ) to impress your friends an ideal Cd for the Lounge bar and Jazz dancefloor alike. What are you waiting for! You are buying into History!!

Spoiler:

Аудио кодек: FLAC
Тип рипа: (tracks + .cue)
Битрейт аудио: lossless
Включает: FLACS, LOG, CUE, TAU - 1.2 Gb
Сканы: Все страницы, вкладыши и диск. 300dpi, png jpg

EAC extraction logfile from 16. May 2008, 8:28 for CD
The James Taylor Qurtet / Hammond-ology (Disc 1)

Used drive : PIONEER DVD-RW DVR-112D Adapter: 0 ID: 0
Read mode : Secure with NO C2, accurate stream, disable cache
Read offset correction : 48
Overread into Lead-In and Lead-Out : No

Used output format : C:\Program Files\FLAC\flac.exe (User Defined Encoder)
320 kBit/s
Additional command line options : -8 -V -T "ARTIST=%a" -T "TITLE=%t" -T "ALBUM=%g" -T "DATE=%y" -T

"TRACKNUMBER=%n" -T "GENRE=%m" -T "COMMENT=EAC FLAC -8" %s

Other options :
Fill up missing offset samples with silence : Yes
Delete leading and trailing silent blocks : No
Installed external ASPI interface

Track 1
Filename D:\music\rip\James Taylor Quartet - Hammond-ology (2001) [FLAC]\CD1\01 - Blow Up.wav

Pre-gap length 0:00:02.00

Peak level 96.6 %
Track quality 100.0 %
Test CRC 04C9BDCA
Copy CRC 04C9BDCA
Copy OK

Track 2
Filename D:\music\rip\James Taylor Quartet - Hammond-ology (2001) [FLAC]\CD1\02 - Mission Impossible.wav

Peak level 96.6 %
Track quality 100.0 %
Test CRC 30BA5C76
Copy CRC 30BA5C76
Copy OK

Track 3
Filename D:\music\rip\James Taylor Quartet - Hammond-ology (2001) [FLAC]\CD1\03 - Car Chase.wav

Pre-gap length 0:00:00.98

Peak level 96.6 %
Track quality 100.0 %
Test CRC A35895D4
Copy CRC A35895D4
Copy OK

Track 4
Filename D:\music\rip\James Taylor Quartet - Hammond-ology (2001) [FLAC]\CD1\04 - The Spyder.wav

Pre-gap length 0:00:01.49

Peak level 96.6 %
Track quality 99.9 %
Test CRC 0AD6CFED
Copy CRC 0AD6CFED
Copy OK

Track 5
Filename D:\music\rip\James Taylor Quartet - Hammond-ology (2001) [FLAC]\CD1\05 - Theme From Starsky and Hutch.wav

Pre-gap length 0:00:00.98

Peak level 96.6 %
Track quality 100.0 %
Test CRC 71A98262
Copy CRC 71A98262
Copy OK

Track 6
Filename D:\music\rip\James Taylor Quartet - Hammond-ology (2001) [FLAC]\CD1\06 - Jungle Strut.wav

Peak level 96.6 %
Track quality 100.0 %
Test CRC 2E536796
Copy CRC 2E536796
Copy OK

Track 7
Filename D:\music\rip\James Taylor Quartet - Hammond-ology (2001) [FLAC]\CD1\07 - Indian Summer.wav

Pre-gap length 0:00:00.98

Peak level 100.0 %
Track quality 100.0 %
Test CRC 62F76B62
Copy CRC 62F76B62
Copy OK

Track 8
Filename D:\music\rip\James Taylor Quartet - Hammond-ology (2001) [FLAC]\CD1\08 - It Doesn't Matter.wav

Peak level 98.9 %
Track quality 100.0 %
Test CRC 397566E1
Copy CRC 397566E1
Copy OK

Track 9
Filename D:\music\rip\James Taylor Quartet - Hammond-ology (2001) [FLAC]\CD1\09 - Breakout.wav

Peak level 96.6 %
Track quality 100.0 %
Test CRC 85906CE0
Copy CRC 85906CE0
Copy OK

Track 10
Filename D:\music\rip\James Taylor Quartet - Hammond-ology (2001) [FLAC]\CD1\10 - Down By The River.wav

Pre-gap length 0:00:00.68

Peak level 96.6 %
Track quality 99.9 %
Test CRC DE3E70A7
Copy CRC DE3E70A7
Copy OK

Track 11
Filename D:\music\rip\James Taylor Quartet - Hammond-ology (2001) [FLAC]\CD1\11 - Grooving Home.wav

Pre-gap length 0:00:00.98

Peak level 96.6 %
Track quality 99.9 %
Test CRC 5D244C1B
Copy CRC 5D244C1B
Copy OK

Track 12
Filename D:\music\rip\James Taylor Quartet - Hammond-ology (2001) [FLAC]\CD1\12 - Love The Life.wav

Peak level 96.6 %
Track quality 100.0 %
Test CRC 3B7D083E
Copy CRC 3B7D083E
Copy OK

Track 13
Filename D:\music\rip\James Taylor Quartet - Hammond-ology (2001) [FLAC]\CD1\13 - Killing Time.wav

Pre-gap length 0:00:00.32

Peak level 96.6 %
Track quality 100.0 %
Test CRC 2927D501
Copy CRC 2927D501
Copy OK

Track 14
Filename D:\music\rip\James Taylor Quartet - Hammond-ology (2001) [FLAC]\CD1\14 - Shelter.wav

Peak level 100.0 %
Track quality 100.0 %
Test CRC 4992B935
Copy CRC 4992B935
Copy OK

Track 15
Filename D:\music\rip\James Taylor Quartet - Hammond-ology (2001) [FLAC]\CD1\15 - Hope And Pray.wav

Peak level 96.6 %
Track quality 100.0 %
Test CRC 0D5ED16E
Copy CRC 0D5ED16E
Copy OK

Track 16
Filename D:\music\rip\James Taylor Quartet - Hammond-ology (2001) [FLAC]\CD1\16 - Theme From The Tomorrow People.wav

Pre-gap length 0:00:00.64

Peak level 96.6 %
Track quality 100.0 %
Test CRC 1B829120
Copy CRC 1B829120
Copy OK

Track 17
Filename D:\music\rip\James Taylor Quartet - Hammond-ology (2001) [FLAC]\CD1\17 - Higher World.wav

Pre-gap length 0:00:00.30

Peak level 96.6 %
Track quality 100.0 %
Test CRC B5668C60
Copy CRC B5668C60
Copy OK

Track 18
Filename D:\music\rip\James Taylor Quartet - Hammond-ology (2001) [FLAC]\CD1\18 - See A Brighter Day.wav

Peak level 96.6 %
Track quality 99.9 %
Test CRC 4E4F2488
Copy CRC 4E4F2488
Copy OK

No errors occured

End of status report

EAC extraction logfile from 16. May 2008, 7:52 for CD
James Taylor Quartet / Hammond-ology (Disk2)

Used drive : PIONEER DVD-RW DVR-112D Adapter: 0 ID: 0
Read mode : Secure with NO C2, accurate stream, disable cache
Read offset correction : 48
Overread into Lead-In and Lead-Out : No

Used output format : C:\Program Files\FLAC\flac.exe (User Defined Encoder)
320 kBit/s
Additional command line options : -8 -V -T "ARTIST=%a" -T "TITLE=%t" -T "ALBUM=%g" -T "DATE=%y" -T

"TRACKNUMBER=%n" -T "GENRE=%m" -T "COMMENT=EAC FLAC -8" %s

Other options :
Fill up missing offset samples with silence : Yes
Delete leading and trailing silent blocks : No
Installed external ASPI interface

Track 1
Filename D:\music\rip\James Taylor Quartet - Hammond-ology (2001) [FLAC]\CD2\01 - Love The Life.wav

Pre-gap length 0:00:02.00

Peak level 96.6 %
Track quality 100.0 %
Test CRC F6301A4E
Copy CRC F6301A4E
Copy OK

Track 2
Filename D:\music\rip\James Taylor Quartet - Hammond-ology (2001) [FLAC]\CD2\02 - Stepping Into My Life.wav

Peak level 96.6 %
Track quality 100.0 %
Test CRC 88DE33D3
Copy CRC 88DE33D3
Copy OK

Track 3
Filename D:\music\rip\James Taylor Quartet - Hammond-ology (2001) [FLAC]\CD2\03 - The Vanishing Point.wav

Pre-gap length 0:00:00.14

Peak level 92.9 %
Track quality 100.0 %
Test CRC A50D900B
Copy CRC A50D900B
Copy OK

Track 4
Filename D:\music\rip\James Taylor Quartet - Hammond-ology (2001) [FLAC]\CD2\04 - Europa.wav

Pre-gap length 0:00:00.50

Peak level 96.8 %
Track quality 100.0 %
Test CRC 92BDB73C
Copy CRC 92BDB73C
Copy OK

Track 5
Filename D:\music\rip\James Taylor Quartet - Hammond-ology (2001) [FLAC]\CD2\05 - Love Will Keep Us Together.wav

Pre-gap length 0:00:00.98

Peak level 96.6 %
Track quality 100.0 %
Test CRC BF5833FD
Copy CRC BF5833FD
Copy OK

Track 6
Filename D:\music\rip\James Taylor Quartet - Hammond-ology (2001) [FLAC]\CD2\06 - Whole Lotta Love.wav

Pre-gap length 0:00:00.98

Peak level 91.2 %
Track quality 100.0 %
Test CRC FB29CBCE
Copy CRC FB29CBCE
Copy OK

Track 7
Filename D:\music\rip\James Taylor Quartet - Hammond-ology (2001) [FLAC]\CD2\07 - In The Hand Of The Inevitable.wav

Pre-gap length 0:00:00.98

Peak level 96.6 %
Track quality 99.9 %
Test CRC EA3EF31C
Copy CRC EA3EF31C
Copy OK

Track 8
Filename D:\music\rip\James Taylor Quartet - Hammond-ology (2001) [FLAC]\CD2\08 - Creation.wav

Peak level 96.6 %
Track quality 100.0 %
Test CRC 017DC3F7
Copy CRC 017DC3F7
Copy OK

Track 9
Filename D:\music\rip\James Taylor Quartet - Hammond-ology (2001) [FLAC]\CD2\09 - Theme From Dirty Harry.wav

Pre-gap length 0:00:00.98

Peak level 100.0 %
Track quality 100.0 %
Test CRC D9619157
Copy CRC D9619157
Copy OK

Track 10
Filename D:\music\rip\James Taylor Quartet - Hammond-ology (2001) [FLAC]\CD2\10 - Austin's Theme.wav

Pre-gap length 0:00:00.98

Peak level 96.6 %
Track quality 100.0 %
Test CRC 95020677
Copy CRC 95020677
Copy OK

Track 11
Filename D:\music\rip\James Taylor Quartet - Hammond-ology (2001) [FLAC]\CD2\11 - Valhalla - ive.wav

Peak level 96.6 %
Track quality 100.0 %
Test CRC A6157326
Copy CRC A6157326
Copy OK

Track 12
Filename D:\music\rip\James Taylor Quartet - Hammond-ology (2001) [FLAC]\CD2\12 - Leads Me Back To You.wav

Pre-gap length 0:00:00.53

Peak level 98.8 %
Track quality 100.0 %
Test CRC 66DCE4E1
Copy CRC 66DCE4E1
Copy OK

Track 13
Filename D:\music\rip\James Taylor Quartet - Hammond-ology (2001) [FLAC]\CD2\13 - Decoding The Pyamids.wav

Peak level 98.8 %
Track quality 100.0 %
Test CRC 61930297
Copy CRC 61930297
Copy OK

Track 14
Filename D:\music\rip\James Taylor Quartet - Hammond-ology (2001) [FLAC]\CD2\14 - Mr C..wav

Peak level 94.2 %
Track quality 100.0 %
Test CRC CF24EA19
Copy CRC CF24EA19
Copy OK

Track 15
Filename D:\music\rip\James Taylor Quartet - Hammond-ology (2001) [FLAC]\CD2\15 - Senouci.wav

Pre-gap length 0:00:00.98

Peak level 95.6 %
Track quality 100.0 %
Test CRC 2C015541
Copy CRC 2C015541
Copy OK

Track 16
Filename D:\music\rip\James Taylor Quartet - Hammond-ology (2001) [FLAC]\CD2\16 - Faster Pussycat.wav

Peak level 95.6 %
Track quality 100.0 %
Test CRC 8CAD2367
Copy CRC 8CAD2367
Copy OK

Track 17
Filename D:\music\rip\James Taylor Quartet - Hammond-ology (2001) [FLAC]\CD2\17 - Message From Sicily.wav

Pre-gap length 0:00:00.22

Peak level 97.4 %
Track quality 100.0 %
Test CRC EAC0F65D
Copy CRC EAC0F65D
Copy OK

No errors occured

End of status report
avatar
Musicgate
Аксакал
Аксакал

Posts : 1018
Join date : 2010-09-01

View user profile

Back to top Go down

View previous topic View next topic Back to top

- Similar topics

 
Permissions in this forum:
You cannot reply to topics in this forum