Chicago

View previous topic View next topic Go down

Chicago

Post by Musicgate on Mon Oct 18, 2010 1:28 pm

Chicago - 25 or 6 to 4 - Live




Жанр: Jazz-Rock, Classic Rock
Год выпуска диска: 1996
Производитель диска, страна: Slam Music 0063, Digitally remastered
Тип: Live
Источник: Моя коллекция
Риппер: Мой рип

Трэклист:
1. Beginnings (5:42)
2. South California Purples (6:16)
3. 25 Or 6 To 4 (5:33)
4. Does Anybody Really Know What Time It Is? (3:12)
5. I'm A Man (6:58)
6. Questions 67 And 68 (4:52)
7. Liberation (14:41)

Состав:
нет данных

"EAC log":

Аудио кодек: FLAC
Тип рипа: (tracks + .cue)
Битрейт аудио: lossless
Включает: Full artwork
Продолжительность: 47:14

[pre]Exact Audio Copy V0.99 prebeta 4 from 23. January 2008
EAC extraction logfile from 19. July 2009, 18:58
Chicago / 25 or 6 to 4 - Live

Used drive : HL-DT-STDVD-RAM GH22NP20 Adapter: 0 ID: 0

Read mode : Secure
Utilize accurate stream : Yes
Defeat audio cache : Yes
Make use of C2 pointers : No

Read offset correction : 102
Overread into Lead-In and Lead-Out : No
Fill up missing offset samples with silence : Yes
Delete leading and trailing silent blocks : No
Null samples used in CRC calculations : Yes
Used interface : Installed external ASPI interface
Gap handling : Appended to previous track

Used output format : User Defined Encoder
Selected bitrate : 320 kBit/s
Quality : High
Add ID3 tag : Yes
Command line compressor : C:\Program Files\Exact Audio Copy\Flac\flac.exe
Additional command line options : -V -8 -T "artist=%a" -T "title=%t" -T "album=%g" -T "date=%y" -T "tracknumber=%n" -T "genre=%m" %s

TOC of the extracted CD

Track | Start | Length | Start sector | End sector
---------------------------------------------------------
1 | 0:00.33 | 5:42.22 | 33 | 25704
2 | 5:42.55 | 6:16.33 | 25705 | 53937
3 | 11:59.13 | 5:32.62 | 53938 | 78899
4 | 17:32.00 | 3:11.43 | 78900 | 93267
5 | 20:43.43 | 6:58.32 | 93268 | 124649
6 | 27:42.00 | 4:52.33 | 124650 | 146582
7 | 32:34.33 | 14:40.57 | 146583 | 212639

Track 1

Filename D:\music\rip\Chicago - 25 or 6 to 4 - Live (1996)\01 - Beginnings.wav

Pre-gap length 0:00:02.44

Peak level 66.0 %
Track quality 100.0 %
Test CRC BC4CF17A
Copy CRC BC4CF17A
Accurately ripped (confidence 1) [703677DA]
Copy OK

Track 2

Filename D:\music\rip\Chicago - 25 or 6 to 4 - Live (1996)\02 - South Carolina Purples.wav

Pre-gap length 0:00:00.62

Peak level 57.9 %
Track quality 100.0 %
Test CRC F18FA2CA
Copy CRC F18FA2CA
Accurately ripped (confidence 1) [5D2AF9EE]
Copy OK

Track 3

Filename D:\music\rip\Chicago - 25 or 6 to 4 - Live (1996)\03 - 25 0r 6 To 4.wav

Peak level 55.0 %
Track quality 100.0 %
Test CRC 8E289055
Copy CRC 8E289055
Accurately ripped (confidence 1) [0420E417]
Copy OK

Track 4

Filename D:\music\rip\Chicago - 25 or 6 to 4 - Live (1996)\04 - Does Anybody Know Really Know What Time It Is.wav

Pre-gap length 0:00:00.82

Peak level 64.7 %
Track quality 99.9 %
Test CRC 6D761A68
Copy CRC 6D761A68
Accurately ripped (confidence 1) [6F432D7D]
Copy OK

Track 5

Filename D:\music\rip\Chicago - 25 or 6 to 4 - Live (1996)\05 - I'm A Man.wav

Pre-gap length 0:00:01.33

Peak level 97.1 %
Track quality 100.0 %
Test CRC 13E711CC
Copy CRC 13E711CC
Accurately ripped (confidence 1) [68B36260]
Copy OK

Track 6

Filename D:\music\rip\Chicago - 25 or 6 to 4 - Live (1996)\06 - Questions 67 And 68.wav

Pre-gap length 0:00:00.89

Peak level 72.3 %
Track quality 100.0 %
Test CRC 9FD82AAB
Copy CRC 9FD82AAB
Accurately ripped (confidence 1) [6B13964E]
Copy OK

Track 7

Filename D:\music\rip\Chicago - 25 or 6 to 4 - Live (1996)\07 - Liberation.wav

Pre-gap length 0:00:00.77

Peak level 81.4 %
Track quality 100.0 %
Test CRC 9FB976EC
Copy CRC 9FB976EC
Accurately ripped (confidence 1) [643647C3]
Copy OK

All tracks accurately ripped

No errors occurred

End of status report
[/pre]


avatar
Musicgate
Аксакал
Аксакал

Posts : 1018
Join date : 2010-09-01

View user profile

Back to top Go down

View previous topic View next topic Back to top

- Similar topics

 
Permissions in this forum:
You cannot reply to topics in this forum