Material

View previous topic View next topic Go down

Material

Post by Musicgate on Mon Oct 18, 2010 5:27 am

Material - Live in Japan '92







Жанр: World Music / Fusion / Dub
Дата записи: live at Shinjuku Pit Inn, Tokyo [August 2, 1992], Kyoto [August 5, 1992] & Imabari [August 7, 1992]
Год издания оригинала: 1993
Страна - производитель диска: USA
Издатель (лейбл): Material, Restless
Номер по каталогу: 7 72739-2
Тип: live
Продолжительность: 68:55
Источник (релизер): Моя коллекция

Трэклист:
01 Invocation (5:21)
02 Leaving Earth (6:39)
03 Desert Star (9:38)
04 Out Of The Dreamtime (5:29)
05 Obsessed (10:45)
06 Into The Seventh House (6:20)
07 Dousongonni Song (4:46)
08 The Receiver (8:06)
09 The Creator Has A Master Plan (8:50)
10 The Image Of The One (2:28)

Состав:
Foday Musa Suso - kora, dousongonni, guitar, percussion, vocal
Bill Laswell - bass, producer
Bernie Worrell - keyboards
Nicky Skopelitis - guitars
Aiyb Dieng - chatan, congas, talking drum, percussion
Ginger Baker - drums

"Лог создания рипа":

Аудио кодек: FLAC (*.flac)
Тип рипа: (tracks + .cue)
Корректность рипа: EAC ripped, correct read offset, test and copy, accuratelly ripped
Битрейт аудио: lossless
Наличие сканов в содержимом раздачи: full scans, png, 300 dpi

Exact Audio Copy V0.99 prebeta 4 from 23. January 2008

EAC extraction logfile from 22. July 2009, 13:00

Material / Live In Japan

Used drive : HL-DT-STDVD-RAM GH22NP20 Adapter: 0 ID: 0

Read mode : Secure
Utilize accurate stream : Yes
Defeat audio cache : Yes
Make use of C2 pointers : No

Read offset correction : 102
Overread into Lead-In and Lead-Out : No
Fill up missing offset samples with silence : Yes
Delete leading and trailing silent blocks : No
Null samples used in CRC calculations : Yes
Used interface : Installed external ASPI interface
Gap handling : Appended to previous track

Used output format : User Defined Encoder
Selected bitrate : 320 kBit/s
Quality : High
Add ID3 tag : Yes
Command line compressor : C:\Program Files\Exact Audio Copy\Flac\flac.exe
Additional command line options : -V -8 -T "artist=%a" -T "title=%t" -T "album=%g" -T "date=%y" -T "tracknumber=%n" -T "genre=%m" %s


TOC of the extracted CD

Track | Start | Length | Start sector | End sector
---------------------------------------------------------
1 | 0:00.40 | 5:25.27 | 40 | 24441
2 | 5:25.67 | 6:41.25 | 24442 | 54541
3 | 12:07.17 | 9:42.15 | 54542 | 98206
4 | 21:49.32 | 5:33.68 | 98207 | 123249
5 | 27:23.25 | 10:49.07 | 123250 | 171931
6 | 38:12.32 | 6:22.30 | 171932 | 200611
7 | 44:34.62 | 4:48.33 | 200612 | 222244
8 | 49:23.20 | 8:10.45 | 222245 | 259039
9 | 57:33.65 | 8:54.40 | 259040 | 299129
10 | 66:28.30 | 2:27.45 | 299130 | 310199


Track 1

Filename D:\music\rip\Material - Live In Japan (1993)\01 - Invocation.wav

Pre-gap length 0:00:02.53

Peak level 84.2 %
Track quality 100.0 %
Test CRC F4017A55
Copy CRC F4017A55
Accurately ripped (confidence 5) [0E077339]
Copy OK

Track 2

Filename D:\music\rip\Material - Live In Japan (1993)\02 - Leaving Earth.wav

Pre-gap length 0:00:03.89

Peak level 91.7 %
Track quality 100.0 %
Test CRC D25B72D8
Copy CRC D25B72D8
Accurately ripped (confidence 5) [7A064C24]
Copy OK

Track 3

Filename D:\music\rip\Material - Live In Japan (1993)\03 - Desert Star.wav

Pre-gap length 0:00:02.22

Peak level 100.0 %
Track quality 100.0 %
Test CRC 09D3470C
Copy CRC 09D3470C
Accurately ripped (confidence 5) [990A993B]
Copy OK

Track 4

Filename D:\music\rip\Material - Live In Japan (1993)\04 - Out of the Dreamtime.wav

Pre-gap length 0:00:03.42

Peak level 100.0 %
Track quality 100.0 %
Test CRC 94C24F7D
Copy CRC 94C24F7D
Accurately ripped (confidence 5) [A349FCE7]
Copy OK

Track 5

Filename D:\music\rip\Material - Live In Japan (1993)\05 - Obsessed.wav

Pre-gap length 0:00:03.33

Peak level 100.0 %
Track quality 100.0 %
Test CRC BF211B3A
Copy CRC BF211B3A
Accurately ripped (confidence 5) [DDA0D717]
Copy OK

Track 6

Filename D:\music\rip\Material - Live In Japan (1993)\06 - Into the Seventh House.wav

Pre-gap length 0:00:04.42

Peak level 99.3 %
Track quality 100.0 %
Test CRC 65559831
Copy CRC 65559831
Accurately ripped (confidence 5) [9FB98A37]
Copy OK

Track 7

Filename D:\music\rip\Material - Live In Japan (1993)\07 - Dousongonni Song.wav

Pre-gap length 0:00:02.82

Peak level 93.6 %
Track quality 100.0 %
Test CRC 59BDAD4C
Copy CRC 59BDAD4C
Accurately ripped (confidence 5) [693C8CF3]
Copy OK

Track 8

Filename D:\music\rip\Material - Live In Japan (1993)\08 - The Receiver.wav

Pre-gap length 0:00:02.26

Peak level 100.0 %
Track quality 100.0 %
Test CRC A42ED40F
Copy CRC A42ED40F
Accurately ripped (confidence 5) [9C169FE8]
Copy OK

Track 9

Filename D:\music\rip\Material - Live In Japan (1993)\09 - The Creator Has a Master Plan.wav

Pre-gap length 0:00:03.86

Peak level 100.0 %
Track quality 100.0 %
Test CRC 880246A3
Copy CRC 880246A3
Accurately ripped (confidence 5) [924560CB]
Copy OK

Track 10

Filename D:\music\rip\Material - Live In Japan (1993)\10 - The Image of the One.wav

Pre-gap length 0:00:05.40

Peak level 76.9 %
Track quality 100.0 %
Test CRC 87E3B643
Copy CRC 87E3B643
Accurately ripped (confidence 5) [36B0DDE3]
Copy OK


All tracks accurately ripped

No errors occurred

End of status report



Last edited by Musicgate on Mon Oct 18, 2010 5:35 am; edited 1 time in total
avatar
Musicgate
Аксакал
Аксакал

Posts : 1018
Join date : 2010-09-01

View user profile

Back to top Go down

Re: Material

Post by Musicgate on Mon Oct 18, 2010 5:29 am

avatar
Musicgate
Аксакал
Аксакал

Posts : 1018
Join date : 2010-09-01

View user profile

Back to top Go down

Re: Material

Post by Tower on Tue Oct 19, 2010 9:05 am

Большое спасибо! Пополнил копилку хорошим концертом хорошей группы.

Tower

Posts : 180
Join date : 2010-09-01
Age : 60
Location : Питер

View user profile

Back to top Go down

Re: Material

Post by Sponsored content


Sponsored content


Back to top Go down

View previous topic View next topic Back to top

- Similar topics

 
Permissions in this forum:
You cannot reply to topics in this forum