Jelly Roll Morton

View previous topic View next topic Go down

Jelly Roll Morton

Post by Musicgate on Tue Oct 12, 2010 7:03 pm



Jelly Roll Morton - Steamboat Stomp (2CD) - {The Cradle Of Jazz. History}

Жанр: Ragtime, Early jazz
Дата записи: 1926-1939
Год издания: unknown
Страна - производитель диска: Germany, Israel
Издатель (лейбл): Trumpets Of Jericho Ltd.
Номер по каталогу: 20.3006-HI
Тип: Compilation

Аудио кодек: FLAC (*.flac)
Тип рипа: (tracks + .cue)
Корректность рипа: EAC ripped, correct read offset, test and copy
Битрейт аудио: lossless
Наличие сканов в содержимом раздачи: full scans, png, 300 dpi
Продолжительность: 1:31:19
Источник (релизер): коллекция Л Рендера, мой рип

Трэклист:
CD1
1. Ob, Didn't He Ramble? (Handy - Crandall) - 3:00
2. High Society (Piron - Williams) - 2:48
3. I Thought I Heard Buddy Bolden Say (Morten) - 3:14
4. Winin' Boy Blues (Morton) - 3:11
5. West End Blues (Williams - Oliver) - 2:51
6. Ballin' The Jack (Smith - Burris) - 2:17
7. The Pearls (Morton) - 2:48
8. King Porter Stomp (Morton) - 2:52
9. Smoke-House Blues (Morton) - 3:23
10. Sidewalk Blues (Morton) - 3:29
11. Steamboat Stomp (Morton) - 3:08
12. Hyena Stomp (Morton) - 3:09
13. Smilin' The Blues Away (Morton - Smith) - 2:53
14. Blue Blood Blues (Morton) - 3:00
15. King Porter Stomp (Morton) - 2:49
16. Mamie's Blues (Sesdume) - 2:39

CD2
1. That's Like It Ought To Be (Morton) - 2:54
2. My Little Dixie Home (Morton) - 2:55
3. When They Get Lovin' They's Gone - 3:29
4. You Done Ployed Out Blues - 3:16
5. That'll Never Do (Morton) - 2:57
6. I'm Looking For A Little Blue Bird (Morton) - 2:55
7. Each Day (Morton) - 2:58
8. If Someone Would Only Love Me (Morton) - 3:42
9. Little Lawrence (Morton) - 2:58
10. Ponchatrain (Morton) - 2:57
11. Harmony Blues (Morton) - 3:33
12. Fussy Mabel (Morton) - 3:19
13. Load Of Coal (Morton) - 3:01
14. Oil Well (Morton) - 2:41

Состав:
"Состав, даты, города":
Oh, Didn't He Ramble?
High Society
I Thought I Heard Buddy Bolden Say
Winin' Boy Blues

New York, September 14, 1939
Sidney De Paris (tp), Claude Jones (tb), Albert Nicholas (cl), Sidney Bechet (ss), Happy Caldwell (ts), Jelly Roll Morton (p), Lawrence Lucie (g), Wellman Braud (b), Zutty Singelton (d).

West End Blues
Ballin' The Jack

New York, September 28, 1939
Sidney De Paris (tp), Fred Robinson (tb), Albert Nicholas (cl), Happy Caldwell (ts), Jelly-Roll Morton (p), Lawrence Lucie (g), Wellman Braud (b), Zutty Singeton (d).

The Pearls
King Porter Stomp

Chicago. April 20. 1926
Jelly-Roll Morton (p).

Smoke-House Blues
Chicago. September 15. 1926
Jelly-Roll Morton (p)(vcl)(speech)(dir), George Mitchell (cn), Kid Ory (tb), Omer Simeon (cl), Johnny St. Cyr (bjo), John Lindsay (b), Andrew Hilaire (d).

Sidewalk Blues
Steamboat Stomp

Chicago. September 21, 1926
Barney Bigard, Darnell Howard (cl), Marty Bloom (effects).

Hyena Stomp
Chicago. June 4. 1927
Jelly-Roll Morton (p)(dir), George Mitchell (cn), Gerald Reeves (tb), Johnny Dodds (cl), Stump Evans (as), Bud Scott (g), Quinn Wilson (bb), Baby Dodds (d), Lew Lernar (effects).

Smilin' The Blues Away
New York. December 17. 1929
Barney Bigard (cl), Jelly-Roll Morton (p), Zutty Singleton (d).

Blue Blood Blues
New York. July 14. 1930
Jelly-Roll Morton (p)(dir), Lard Pinkett (tp), Geechie Fields (tb), Albert Nicholas (cl), Howard Hill (g), Pete Biggs (bb), Tommy Benford (d).

King Porter Stomp
New York. December 14. 1939
Jelly-Roll Morton (p).

Mamie's Blues
New York. December 16. 1939
Jelly-Roll Morton (p)(vcl).

That's Like It Ought To Be
My Little Dixie Home

New York. December 17, 1929
Barney Bigard (cl), Jelly-Roll Morton (p), Zutty Singleton (d).

When They Get Lovin' They's Gone
You Done Played Out Blues

New York. April 3, 1930
Billie Young (vcl). Jelly-Roll Morton (P)

That'll Never Do
I'm Looking For A Little Blue Bird
Each Day
If Someone Would Only Love Me

New York. March 5. 1930
Ward Pinkett, Bubber Miley (tp), Wilbur De Paris (tb)(cl)(bcl), Jelly-Roll Morton (p), Bernhard Addison (g), Bill Benford (tu), Tommy Benford (d).

Little Lawrence
New York. March 19. 1930
Ward Pinkett, Bubber Miley (tp), Wilbur De Paris (tb)(cl), Jelly-Roll Morton (p), Bernard Addison (g), Bill Benford (tu), Tommy Benford (d).

Ponchatrain
New York. March 20. 1930
Ward Pinkett, Bubber Miley (tp), Wilbur De Paris (tb), (cl)(bcl), Jelly-Roll Morton (p), Bernard Addison (g), Bill Benford (tu), Tommy Benford (d).

Harmony Blues
New York. March 19, 1930
Ward Pinkett, Bubber Miley (tp), Wilbur De Paris (tb)(cl), Jelly-Roll Morton (p), Bernard Addison (g), Bill Benford (tu), Tommy Benford (d).

Fussy Mabel
New York. March 20. 1930
Ward Pinkett, Bubber Miley (tp), Wilbur De Paris (tb), (cl)(bcl), Jelly-Roll Morton (p), Bernard Addison (g), Bill Benford (tu), Tommy Benford (d).

Load Of Coal
Oil Well

New York. June 2. 1930
Ward Pinkett (tp), Geechie Fields (tb)(cl)(as), Walter Thomas (cl)(as), Joe Thomas (cl)(ts), Jelly-Roll Morton (p), Lee Blair (bjo), Billy Taylor (tu), Cozy Cole (d).

"CD1":
Exact Audio Copy V0.99 prebeta 4 from 23. January 2008

EAC extraction logfile from 16. September 2010, 13:44

Jelly Roll Morton / Steamboat Stomp (CD1 of 2)

Used drive : HL-DT-STDVD-RAM GH22NP20 Adapter: 0 ID: 0

Read mode : Secure
Utilize accurate stream : Yes
Defeat audio cache : Yes
Make use of C2 pointers : No

Read offset correction : 102
Overread into Lead-In and Lead-Out : No
Fill up missing offset samples with silence : Yes
Delete leading and trailing silent blocks : No
Null samples used in CRC calculations : Yes
Used interface : Installed external ASPI interface
Gap handling : Appended to previous track

Used output format : User Defined Encoder
Selected bitrate : 320 kBit/s
Quality : High
Add ID3 tag : No
Command line compressor : C:\Program Files\Exact Audio Copy\Flac\flac.exe
Additional command line options : -V -8 -T "artist=%a" -T "title=%t" -T "album=%g" -T "date=%y" -T "tracknumber=%n" -T "genre=%m" %s


TOC of the extracted CD

Track | Start | Length | Start sector | End sector
---------------------------------------------------------
1 | 0:00.00 | 3:00.48 | 0 | 13547
2 | 3:00.48 | 2:48.69 | 13548 | 26216
3 | 5:49.42 | 3:14.52 | 26217 | 40818
4 | 9:04.19 | 3:11.74 | 40819 | 55217
5 | 12:16.18 | 2:51.58 | 55218 | 68100
6 | 15:08.01 | 2:17.27 | 68101 | 78402
7 | 17:25.28 | 2:48.53 | 78403 | 91055
8 | 20:14.06 | 2:52.15 | 91056 | 103970
9 | 23:06.21 | 3:23.15 | 103971 | 119210
10 | 26:29.36 | 3:29.04 | 119211 | 134889
11 | 29:58.40 | 3:08.37 | 134890 | 149026
12 | 33:07.02 | 3:09.32 | 149027 | 163233
13 | 36:16.34 | 2:53.25 | 163234 | 176233
14 | 39:09.59 | 3:00.28 | 176234 | 189761
15 | 42:10.12 | 2:49.10 | 189762 | 202446
16 | 44:59.22 | 2:39.40 | 202447 | 214411


Track 1

Filename D:\music\Musicgate's rips\Jelly Roll Morton - Steamboat Stomp (2CD) - {The Cradle Of Jazz. History}\CD1\01 - Oh,Didn't He Ramble.wav

Pre-gap length 0:00:02.00

Peak level 67.4 %
Track quality 99.9 %
Test CRC 215D8D97
Copy CRC 215D8D97
Track not present in AccurateRip database
Copy OK

Track 2

Filename D:\music\Musicgate's rips\Jelly Roll Morton - Steamboat Stomp (2CD) - {The Cradle Of Jazz. History}\CD1\02 - High Society.wav

Pre-gap length 0:00:01.60

Peak level 78.5 %
Track quality 100.0 %
Test CRC 029C0EAB
Copy CRC 029C0EAB
Track not present in AccurateRip database
Copy OK

Track 3

Filename D:\music\Musicgate's rips\Jelly Roll Morton - Steamboat Stomp (2CD) - {The Cradle Of Jazz. History}\CD1\03 - I Thought I Heard Buddy Bolden Say.wav

Pre-gap length 0:00:01.60

Peak level 86.1 %
Track quality 100.0 %
Test CRC 99F815BA
Copy CRC 99F815BA
Track not present in AccurateRip database
Copy OK

Track 4

Filename D:\music\Musicgate's rips\Jelly Roll Morton - Steamboat Stomp (2CD) - {The Cradle Of Jazz. History}\CD1\04 - Winin' Boy Blues.wav

Pre-gap length 0:00:01.60

Peak level 70.1 %
Track quality 100.0 %
Test CRC 07EDEF87
Copy CRC 07EDEF87
Track not present in AccurateRip database
Copy OK

Track 5

Filename D:\music\Musicgate's rips\Jelly Roll Morton - Steamboat Stomp (2CD) - {The Cradle Of Jazz. History}\CD1\05 - West End Blues.wav

Pre-gap length 0:00:01.60

Peak level 67.2 %
Track quality 100.0 %
Test CRC FB79B0E1
Copy CRC FB79B0E1
Track not present in AccurateRip database
Copy OK

Track 6

Filename D:\music\Musicgate's rips\Jelly Roll Morton - Steamboat Stomp (2CD) - {The Cradle Of Jazz. History}\CD1\06 - Ballin' The Jack.wav

Pre-gap length 0:00:01.60

Peak level 79.8 %
Track quality 100.0 %
Test CRC F1250970
Copy CRC F1250970
Track not present in AccurateRip database
Copy OK

Track 7

Filename D:\music\Musicgate's rips\Jelly Roll Morton - Steamboat Stomp (2CD) - {The Cradle Of Jazz. History}\CD1\07 - The Pearls.wav

Pre-gap length 0:00:01.60

Peak level 79.8 %
Track quality 100.0 %
Test CRC 0CC40D2A
Copy CRC 0CC40D2A
Track not present in AccurateRip database
Copy OK

Track 8

Filename D:\music\Musicgate's rips\Jelly Roll Morton - Steamboat Stomp (2CD) - {The Cradle Of Jazz. History}\CD1\08 - King Porter Stomp.wav

Pre-gap length 0:00:01.60

Peak level 76.1 %
Track quality 100.0 %
Test CRC 3874446F
Copy CRC 3874446F
Track not present in AccurateRip database
Copy OK

Track 9

Filename D:\music\Musicgate's rips\Jelly Roll Morton - Steamboat Stomp (2CD) - {The Cradle Of Jazz. History}\CD1\09 - Smoke-House Blues.wav

Pre-gap length 0:00:01.60

Peak level 85.8 %
Track quality 99.9 %
Test CRC 45015537
Copy CRC 45015537
Track not present in AccurateRip database
Copy OK

Track 10

Filename D:\music\Musicgate's rips\Jelly Roll Morton - Steamboat Stomp (2CD) - {The Cradle Of Jazz. History}\CD1\10 - Sidewalk Blues.wav

Pre-gap length 0:00:01.58

Peak level 66.3 %
Track quality 100.0 %
Test CRC 513D6CDE
Copy CRC 513D6CDE
Track not present in AccurateRip database
Copy OK

Track 11

Filename D:\music\Musicgate's rips\Jelly Roll Morton - Steamboat Stomp (2CD) - {The Cradle Of Jazz. History}\CD1\11 - Steamboat Stomp.wav

Pre-gap length 0:00:01.60

Peak level 84.4 %
Track quality 100.0 %
Test CRC CB244EDA
Copy CRC CB244EDA
Track not present in AccurateRip database
Copy OK

Track 12

Filename D:\music\Musicgate's rips\Jelly Roll Morton - Steamboat Stomp (2CD) - {The Cradle Of Jazz. History}\CD1\12 - Hyena Stomp.wav

Pre-gap length 0:00:01.60

Peak level 99.9 %
Track quality 100.0 %
Test CRC 1C778F84
Copy CRC 1C778F84
Track not present in AccurateRip database
Copy OK

Track 13

Filename D:\music\Musicgate's rips\Jelly Roll Morton - Steamboat Stomp (2CD) - {The Cradle Of Jazz. History}\CD1\13 - Smilin' The Blues Away.wav

Pre-gap length 0:00:01.60

Peak level 84.2 %
Track quality 99.9 %
Test CRC 5A001A6B
Copy CRC 5A001A6B
Track not present in AccurateRip database
Copy OK

Track 14

Filename D:\music\Musicgate's rips\Jelly Roll Morton - Steamboat Stomp (2CD) - {The Cradle Of Jazz. History}\CD1\14 - Blue Blood Blues.wav

Pre-gap length 0:00:01.60

Peak level 73.6 %
Track quality 100.0 %
Test CRC B50C7B65
Copy CRC B50C7B65
Track not present in AccurateRip database
Copy OK

Track 15

Filename D:\music\Musicgate's rips\Jelly Roll Morton - Steamboat Stomp (2CD) - {The Cradle Of Jazz. History}\CD1\15 - King Porter Stomp (version 2).wav

Pre-gap length 0:00:01.60

Peak level 78.7 %
Track quality 100.0 %
Test CRC 273DDB8F
Copy CRC 273DDB8F
Track not present in AccurateRip database
Copy OK

Track 16

Filename D:\music\Musicgate's rips\Jelly Roll Morton - Steamboat Stomp (2CD) - {The Cradle Of Jazz. History}\CD1\16 - Mamie's Blues.wav

Pre-gap length 0:00:01.60

Peak level 77.2 %
Track quality 100.0 %
Test CRC 47DB370D
Copy CRC 47DB370D
Track not present in AccurateRip database
Copy OK


None of the tracks are present in the AccurateRip database

No errors occurred

End of status report
"CD2":
Exact Audio Copy V0.99 prebeta 4 from 23. January 2008

EAC extraction logfile from 16. September 2010, 16:20

Jelly Roll Morton / Steamboat Stomp (CD2 of 2)

Used drive : HL-DT-STDVD-RAM GH22NP20 Adapter: 0 ID: 0

Read mode : Secure
Utilize accurate stream : Yes
Defeat audio cache : Yes
Make use of C2 pointers : No

Read offset correction : 102
Overread into Lead-In and Lead-Out : No
Fill up missing offset samples with silence : Yes
Delete leading and trailing silent blocks : No
Null samples used in CRC calculations : Yes
Used interface : Installed external ASPI interface
Gap handling : Appended to previous track

Used output format : User Defined Encoder
Selected bitrate : 320 kBit/s
Quality : High
Add ID3 tag : No
Command line compressor : C:\Program Files\Exact Audio Copy\Flac\flac.exe
Additional command line options : -V -8 -T "artist=%a" -T "title=%t" -T "album=%g" -T "date=%y" -T "tracknumber=%n" -T "genre=%m" %s


TOC of the extracted CD

Track | Start | Length | Start sector | End sector
---------------------------------------------------------
1 | 0:00.00 | 2:54.63 | 0 | 13112
2 | 2:54.63 | 2:55.08 | 13113 | 26245
3 | 5:49.71 | 3:29.16 | 26246 | 41936
4 | 9:19.12 | 3:16.57 | 41937 | 56693
5 | 12:35.69 | 2:57.67 | 56694 | 70035
6 | 15:33.61 | 2:55.04 | 70036 | 83164
7 | 18:28.65 | 2:58.15 | 83165 | 96529
8 | 21:27.05 | 3:42.40 | 96530 | 113219
9 | 25:09.45 | 2:58.19 | 113220 | 126588
10 | 28:07.64 | 2:57.06 | 126589 | 139869
11 | 31:04.70 | 3:33.39 | 139870 | 155883
12 | 34:38.34 | 3:19.47 | 155884 | 170855
13 | 37:58.06 | 3:01.44 | 170856 | 184474
14 | 40:59.50 | 2:41.37 | 184475 | 196586


Track 1

Filename D:\music\Musicgate's rips\Jelly Roll Morton - Steamboat Stomp (2CD) - {The Cradle Of Jazz. History}\CD2\01 - That's Like It Ought To Be.wav

Pre-gap length 0:00:02.00

Peak level 95.4 %
Track quality 100.0 %
Test CRC 079EC5ED
Copy CRC 079EC5ED
Track not present in AccurateRip database
Copy OK

Track 2

Filename D:\music\Musicgate's rips\Jelly Roll Morton - Steamboat Stomp (2CD) - {The Cradle Of Jazz. History}\CD2\02 - My Little Dixie Home.wav

Pre-gap length 0:00:01.60

Peak level 94.7 %
Track quality 100.0 %
Test CRC 11872A61
Copy CRC 11872A61
Track not present in AccurateRip database
Copy OK

Track 3

Filename D:\music\Musicgate's rips\Jelly Roll Morton - Steamboat Stomp (2CD) - {The Cradle Of Jazz. History}\CD2\03 - When They Get Lovin' They's Gone.wav

Pre-gap length 0:00:01.60

Peak level 92.4 %
Track quality 99.9 %
Test CRC F91E1F55
Copy CRC F91E1F55
Track not present in AccurateRip database
Copy OK

Track 4

Filename D:\music\Musicgate's rips\Jelly Roll Morton - Steamboat Stomp (2CD) - {The Cradle Of Jazz. History}\CD2\04 - You Done Played Out Blues.wav

Pre-gap length 0:00:01.60

Peak level 93.0 %
Track quality 100.0 %
Test CRC 22F0199F
Copy CRC 22F0199F
Track not present in AccurateRip database
Copy OK

Track 5

Filename D:\music\Musicgate's rips\Jelly Roll Morton - Steamboat Stomp (2CD) - {The Cradle Of Jazz. History}\CD2\05 - That'll Never Do.wav

Pre-gap length 0:00:01.60

Peak level 75.8 %
Track quality 100.0 %
Test CRC 58B407CF
Copy CRC 58B407CF
Track not present in AccurateRip database
Copy OK

Track 6

Filename D:\music\Musicgate's rips\Jelly Roll Morton - Steamboat Stomp (2CD) - {The Cradle Of Jazz. History}\CD2\06 - I'm Looking For A Little Blue Bird.wav

Pre-gap length 0:00:01.60

Peak level 66.5 %
Track quality 100.0 %
Test CRC 5400DBDA
Copy CRC 5400DBDA
Track not present in AccurateRip database
Copy OK

Track 7

Filename D:\music\Musicgate's rips\Jelly Roll Morton - Steamboat Stomp (2CD) - {The Cradle Of Jazz. History}\CD2\07 - Each Day.wav

Pre-gap length 0:00:01.60

Peak level 87.5 %
Track quality 100.0 %
Test CRC 5034F6F0
Copy CRC 5034F6F0
Track not present in AccurateRip database
Copy OK

Track 8

Filename D:\music\Musicgate's rips\Jelly Roll Morton - Steamboat Stomp (2CD) - {The Cradle Of Jazz. History}\CD2\08 - If Someone Would Only Love Me.wav

Pre-gap length 0:00:01.60

Peak level 60.2 %
Track quality 100.0 %
Test CRC F79A99D7
Copy CRC F79A99D7
Track not present in AccurateRip database
Copy OK

Track 9

Filename D:\music\Musicgate's rips\Jelly Roll Morton - Steamboat Stomp (2CD) - {The Cradle Of Jazz. History}\CD2\09 - Little Lawrence.wav

Pre-gap length 0:00:01.60

Peak level 73.4 %
Track quality 100.0 %
Test CRC 10FB61B4
Copy CRC 10FB61B4
Track not present in AccurateRip database
Copy OK

Track 10

Filename D:\music\Musicgate's rips\Jelly Roll Morton - Steamboat Stomp (2CD) - {The Cradle Of Jazz. History}\CD2\10 - Ponchatrain.wav

Pre-gap length 0:00:01.60

Peak level 73.4 %
Track quality 100.0 %
Test CRC 889D7BB4
Copy CRC 889D7BB4
Track not present in AccurateRip database
Copy OK

Track 11

Filename D:\music\Musicgate's rips\Jelly Roll Morton - Steamboat Stomp (2CD) - {The Cradle Of Jazz. History}\CD2\11 - Harmony Blues.wav

Pre-gap length 0:00:01.60

Peak level 68.8 %
Track quality 99.9 %
Test CRC BD8FFC2A
Copy CRC BD8FFC2A
Track not present in AccurateRip database
Copy OK

Track 12

Filename D:\music\Musicgate's rips\Jelly Roll Morton - Steamboat Stomp (2CD) - {The Cradle Of Jazz. History}\CD2\12 - Fussy Mabel.wav

Pre-gap length 0:00:01.60

Peak level 73.5 %
Track quality 100.0 %
Test CRC 17FECF58
Copy CRC 17FECF58
Track not present in AccurateRip database
Copy OK

Track 13

Filename D:\music\Musicgate's rips\Jelly Roll Morton - Steamboat Stomp (2CD) - {The Cradle Of Jazz. History}\CD2\13 - Load Of Coal.wav

Pre-gap length 0:00:01.60

Peak level 93.6 %
Track quality 100.0 %
Test CRC 2E8CD950
Copy CRC 2E8CD950
Track not present in AccurateRip database
Copy OK

Track 14

Filename D:\music\Musicgate's rips\Jelly Roll Morton - Steamboat Stomp (2CD) - {The Cradle Of Jazz. History}\CD2\14 - Oil Well.wav

Pre-gap length 0:00:01.60

Peak level 95.3 %
Track quality 100.0 %
Test CRC 9E12EC09
Copy CRC 9E12EC09
Track not present in AccurateRip database
Copy OK


None of the tracks are present in the AccurateRip database

No errors occurred

End of status report
avatar
Musicgate
Аксакал
Аксакал

Posts : 1018
Join date : 2010-09-01

View user profile

Back to top Go down

View previous topic View next topic Back to top

- Similar topics

 
Permissions in this forum:
You cannot reply to topics in this forum