Igor Boiko (Russia)

View previous topic View next topic Go down

Igor Boiko (Russia)

Post by Musicgate on Tue Oct 12, 2010 5:29 pm

Igor Boiko - Sparks & Shadows - 2008







Жанр: Fusion, contemporary jazz
Год издания: 2008
Страна - производитель диска:
Издатель (лейбл): WWW Records
Источник (релизер): Моя коллекция, подарок от 30277, мой рип

Трэклист:
1. Сквозь радугу - Piercing the Rainbow
2. Просто поверь - Just Believe It
3. Прощайте, мистер Хаммер - Goodbye, Mr. Hummer
4. Искры и тени - Sparks and Shadows
5. Было хорошо - It Was All Right
6. Август - August
7. Иронический взгляд - An Ironic Look
8. Время позитива - Time Positive
9. Найденный путь - The Path Revealed
10. Это не всё - That's Not All

Состав:

Продюсер, автор всех композиций и аранжировок - Игорь Бойко
Игорь Бойко - электрическая и акустическая гитары
Владимир Прихожай - Hohner Clavinet-D6 (1,2,5), Mini Moog (1-6), рояль (10)
Алексей Подымкин -акустический рояль (3,6), Rhodes piano (1-6,8,10)
Константин Горячий - Hammond Organ (1, 4, 7, 8,10)
Максим Некрасов - губная гармошка (3, 5, 6)
Алексей Батыченко - труба (2,4,8)
Александр Мичурин -тромбон (2,4, 8)
Терри Тайлер - бас гитара (1-10)
Ронни Буррадж - барабаны (1-10), вокал (7,9)
Влад Окунев - перкуссия (1,4, 8,10)

All songs & arrangements by Igor Boiko
Igor Boiko - electric & acoustic guitars
Vladimir Prikhozhai - Hohner Clavinet-D6 (1,2,5), Mini Moog (1-6), piano (10)
Alexei Podymkin - acoustic piano (3,6), Rhodes piano (1-6,8,10)
Konstantin Goryachy - Hammond Organ (1,4,7,8,10)
Maxim Nekrasov - harp (3,5,6)
Alexey Batichenko - trumpet (2,4,8)
Alexander Michurin - trombone (2,4,8)
Terry Tyler - bass (1-10)
Ronnie Burrage - drums (1-10), vocal (7,9)
Vlad Okunev - percussion (1,4,8,10)
Eugene Pankov - brass arrangements (2,4,8)

Kuzmitch | 20 октября, 2008
http://www.guitarplayer.ru/news/igor-boiko-vypuskaet-novyi-albom-iskry-i-teni

Шестой альбом Игоря Бойко "Искры и тени" открыл новый этап в творческой карьере музыканта. Зрелые идеи, накопленный опыт, постоянный поиск, - все это позволило раскрыться гитаристу и композитору полно, ярко и интересно. Альбом "Искры и тени" можно сравнить с хорошим романом, читая который, забываешь обо всем, жадно листая главу за главой.

Весь диск пронизан мелодической лёгкостью и неожиданной гармонической непритязательностью, при этом, никоим образом музыкантов нельзя обвинить в тривиальности. Каждый из них в полной мере демонстрирует высокий класс профессионализма. Мало того, автору альбома удалось найти то золотое сечение, которое делает некоммерческую музыку доступной и интересной для неискушённого слушателя.

«Делая альбом, я не пытался претендовать на новаторство, или, тем паче, гнаться за модой», - говорит сам Игорь Бойко, — «мне хотелось аккумулировать чувства и настроения, выразив их в мелодиях. И я готов поделиться ими с окружающими. Я не задумывался в каком стиле получится мой диск: фанк или фьюжн, джаз или блюз, или ещё что-то. На интуитивном уровне я делал то, что близко мне, что считаю нужным. Я благодарен всем музыкантам, которые помогали мне это осуществить. Очень приятно, что удалось собрать не просто музыкантов-профессионалов, а людей, близких мне по духу и творческому восприятию музыкального материала».

Над альбомом работал интернациональный состав музыкантов. Ритм-секцию представили заокеанские профи: басист Терри Тэйлер и барабанщик Ронни Буррадж, который исполнил и вокальные партии. Музыкальные требования к клавишным инструментам были предъявлены принципиально разные, поэтому к работе были привлечены три разных музыканта. На рояле и электропиано «Rhodes» замечательно сыграл Алексей Подымкин. Блестящее владение органом «Hammond» продемонстрировал Константин Горячий из Беларуси. Мастерство на синтезаторах и «Hohner-D6 Clavinet» показал Владимир Прихожай из Украины. Особой колорит в звучание альбома привнес Максим Некрасов - мастер игры на хроматической губной гармонике. Изысканные ритмические «специи» добавил перкуссионист Влад Окунев. Брасс-секцию представили трубач Алексей Батыченко и тромбонист Александр Мичурин. Все же гитарные партии, естественно, сыграл Игорь Бойко.

Музыканты показали не только мастерство и изысканность импровизаций, но и сотворили с музыкой то, что на Западе называют «химией»: каждая композиция, как хороший фильм, завораживает цельностью и красотой.

Альбом «Искры и тени» выпущен в 2008 году российским лэйблом «WWWRECORDS-NuNote». Запись альбома производилась в московских студиях «Наше время» (звукорежиссер Денис Юрасов) и «Vintage-records studio» (звукорежиссер Дмитрий Куликов). Сведение диска сделано Сергеем Большаковым на студии «Наше время», мастеринг произведен Владимиром Овчинниковым на студии «Мосфильм». Продюсером альбома выступил Игорь Бойко.

"Лог создания рипа":

Exact Audio Copy V0.99 prebeta 4 from 23. January 2008

EAC extraction logfile from 29. September 2010, 12:17

Igor Boiko / Sparks And Shadows

Used drive : HL-DT-STDVD-RAM GH22NP20 Adapter: 0 ID: 0

Read mode : Secure
Utilize accurate stream : Yes
Defeat audio cache : Yes
Make use of C2 pointers : No

Read offset correction : 102
Overread into Lead-In and Lead-Out : No
Fill up missing offset samples with silence : Yes
Delete leading and trailing silent blocks : No
Null samples used in CRC calculations : Yes
Used interface : Installed external ASPI interface
Gap handling : Appended to previous track

Used output format : User Defined Encoder
Selected bitrate : 320 kBit/s
Quality : High
Add ID3 tag : No
Command line compressor : C:\Program Files\Exact Audio Copy\Flac\flac.exe
Additional command line options : -V -8 -T "artist=%a" -T "title=%t" -T "album=%g" -T "date=%y" -T "tracknumber=%n" -T "genre=%m" %s


TOC of the extracted CD

Track | Start | Length | Start sector | End sector
---------------------------------------------------------
1 | 0:00.00 | 4:56.16 | 0 | 22215
2 | 4:56.16 | 4:20.68 | 22216 | 41783
3 | 9:17.09 | 5:19.19 | 41784 | 65727
4 | 14:36.28 | 6:43.59 | 65728 | 96011
5 | 21:20.12 | 4:29.10 | 96012 | 116196
6 | 25:49.22 | 6:18.12 | 116197 | 144558
7 | 32:07.34 | 4:59.28 | 144559 | 167011
8 | 37:06.62 | 4:37.08 | 167012 | 187794
9 | 41:43.70 | 5:43.33 | 187795 | 213552
10 | 47:27.28 | 4:38.10 | 213553 | 234412


Track 1

Filename D:\music\Musicgate's rips\Igor Boiko - Sparks & Shadows - 2008 (WWW Records)\01 - Piersing The Rainbow.wav

Pre-gap length 0:00:02.00

Peak level 99.9 %
Track quality 99.9 %
Test CRC F61A8B53
Copy CRC F61A8B53
Track not present in AccurateRip database
Copy OK

Track 2

Filename D:\music\Musicgate's rips\Igor Boiko - Sparks & Shadows - 2008 (WWW Records)\02 - Just Believe It.wav

Peak level 99.9 %
Track quality 100.0 %
Test CRC 6928EE2A
Copy CRC 6928EE2A
Track not present in AccurateRip database
Copy OK

Track 3

Filename D:\music\Musicgate's rips\Igor Boiko - Sparks & Shadows - 2008 (WWW Records)\03 - Goodbye, Mr. Hammer.wav

Peak level 99.9 %
Track quality 100.0 %
Test CRC 8E3F426D
Copy CRC 8E3F426D
Track not present in AccurateRip database
Copy OK

Track 4

Filename D:\music\Musicgate's rips\Igor Boiko - Sparks & Shadows - 2008 (WWW Records)\04 - Sparks And Shadows.wav

Peak level 99.9 %
Track quality 99.9 %
Test CRC DC73A4FD
Copy CRC DC73A4FD
Track not present in AccurateRip database
Copy OK

Track 5

Filename D:\music\Musicgate's rips\Igor Boiko - Sparks & Shadows - 2008 (WWW Records)\05 - It Was All Right.wav

Peak level 99.9 %
Track quality 100.0 %
Test CRC 19434A52
Copy CRC 19434A52
Track not present in AccurateRip database
Copy OK

Track 6

Filename D:\music\Musicgate's rips\Igor Boiko - Sparks & Shadows - 2008 (WWW Records)\06 - August.wav

Peak level 99.9 %
Track quality 100.0 %
Test CRC 06926814
Copy CRC 06926814
Track not present in AccurateRip database
Copy OK

Track 7

Filename D:\music\Musicgate's rips\Igor Boiko - Sparks & Shadows - 2008 (WWW Records)\07 - An Ironic Look.wav

Peak level 99.9 %
Track quality 100.0 %
Test CRC 3E08689E
Copy CRC 3E08689E
Track not present in AccurateRip database
Copy OK

Track 8

Filename D:\music\Musicgate's rips\Igor Boiko - Sparks & Shadows - 2008 (WWW Records)\08 - Time Positive.wav

Peak level 99.9 %
Track quality 100.0 %
Test CRC 705778C4
Copy CRC 705778C4
Track not present in AccurateRip database
Copy OK

Track 9

Filename D:\music\Musicgate's rips\Igor Boiko - Sparks & Shadows - 2008 (WWW Records)\09 - The Path Releaved.wav

Peak level 99.9 %
Track quality 100.0 %
Test CRC 8C055E74
Copy CRC 8C055E74
Track not present in AccurateRip database
Copy OK

Track 10

Filename D:\music\Musicgate's rips\Igor Boiko - Sparks & Shadows - 2008 (WWW Records)\10 - That's Not All.wav

Peak level 99.9 %
Track quality 100.0 %
Test CRC AA4F6260
Copy CRC AA4F6260
Track not present in AccurateRip database
Copy OK


None of the tracks are present in the AccurateRip database

No errors occurred

End of status report


avatar
Musicgate
Аксакал
Аксакал

Posts : 1018
Join date : 2010-09-01

View user profile

Back to top Go down

Re: Igor Boiko (Russia)

Post by golf789 on Wed Oct 13, 2010 11:41 am

Спасибо большое , послушаем!
avatar
golf789

Posts : 4
Join date : 2010-09-02

View user profile

Back to top Go down

View previous topic View next topic Back to top

- Similar topics

 
Permissions in this forum:
You cannot reply to topics in this forum