Arik Einstein & Miki Gavrielov - Soft Rock

Go down

Arik Einstein & Miki Gavrielov - Soft Rock

Post by Musicgate on Sat Oct 02, 2010 2:43 pm

Arik Einstein & Miki Gavrielov - A Home Loving Man (Ohev Lihiot Babait) (1986)





Жанр: Soft Rock
Дата записи: 1986
Год издания оригинала: 1986
Издатель (лейбл): NMC, 26802-2, Israel

Аудио кодек: FLAC (*.flac)
Тип рипа: (tracks + .cue)
Корректность рипа: EAC ripped, correct read offset
Битрейт аудио: lossless
Наличие сканов в содержимом раздачи: full scans, png, 300 dpi
Источник (релизер): Моя коллекция, мой рип

Трэклист:
01 - To Drip A little (Arik Einstein - Miki Gavrielov)
02 - Sheshenbay (A. Kondis - G. Kalmariotis, hebrew - Ely Izhar)
03 - I'm Tryin To See The Good Things (Arik Einstein - Miki Gavrielov)
04 - A Home Loving Man (Arik Einstein - Miki Gavrielov)
05 - A Song About Parrot Yossi (Abraham Halfy - Miki Gavrielov)
06 - To All The Time (Arik Einstein - Miki Gavrielov)
07 - Sitting With The Papper (Arik Einstein - Miki Gavrielov)
08 - Today My Song Is Sad (Arik Einstein - Miki Gavrielov)
09 - He Have No Time (Arik Einstein - Miki Gavrielov)
10 - I'll Wait (Ely Mohar - Miki Gavrielov)
Arrangements - Itzhak Klepter and Miki Gavrielov

Состав:
Miki Gavrielov - guitars, bass on 5, backing vocal
Itzhak Klepter - guitar
Alon Olearchick - bass
Yoni Rechter - piano, synthesier
Meir Israel - bass
Additional Musicians
Yechyda Poliker - Buzuki, baglama
Yaroslav Yackubovitz - saxes
Adi Rennert - Keyboards
Raviv Gazit - Kurzveil, Syncklavir
Abracham Felder - trumpet
Hezy Davidian - sytar
Alon Halal - Drums on 8

avatar
Musicgate
Аксакал
Аксакал

Posts : 1018
Join date : 2010-09-01

View user profile

Back to top Go down

Re: Arik Einstein & Miki Gavrielov - Soft Rock

Post by Musicgate on Sat Oct 02, 2010 2:46 pm

Arik Einstein & Miki Gavrielov - Slow Down (Sa Leat) (1974)







Год издания оригинала: 1974, PHONODOR
Год переиздания: 1990
Издатель (лейбл): Phonokol CDP009

Аудио кодек: FLAC (*.flac)
Тип рипа: (tracks + .cue)
Корректность рипа: EAC ripped, correct read offset, test and copy, accuratelly ripped
Битрейт аудио: lossless
Наличие сканов в содержимом раздачи: full scans, png, 300 dpi
Источник (релизер): Моя коллекция, мой рип

Трэклист:
1. Sa Le'at (Slow Down) (Einstein - Gavrielow) 04:17
2. Yeladim Shel Ha-Chaim (Children Of Life) (Shalom Hanoch - Shalom Hanoch) 04:19
3. Ha-Zman Ha-Kafri (The Village Time) (Lea Goldberg - Gavrielov) 04:09
4. Agadat Deshe (Meddow Ferrytale) (Meir Ariel - Shalom Hanoch) 04:24
5. Sichot Diplomatiot (Diplomatic Talks) (Natan alterman - Miki Gavrielov) 03:59
6. Ha-Balada Al Zoomati Ve-Labati (The Balade Of Zoomati & Labati) (Eistein - Haim Kariv, Miki Gavrielov) 04:48
7. Ani Ohev Otach Hayom (I Love You Today) (Einstein - Gavrielow) 04:02
8. Ey'nay'im Gdolot (Big Eyes) (Uri Zohar, Arik Einstein, Miki Gavrielov - Miki Gavrielov) 04:52
9. Shir Shel Randy Newman (Randy Newman's Song) (Arik Einstein, Yonatan Gefen - Randy Newman) 02:00
10. Gan Shel Shoshanim (Roses Garden) (Yonatan Gefen - Miki Gavrielov) 02:30

Состав:
Shem-Tov Levy - Keyboards, String Arrangement
Miki Gavrielov - Bass, Guitar, Vocal, Arranger
Ami Traibtash - drums
Yakow Neger - Keyboards
Dydi Rosental - Keyboards
Alona Turel - Keyboards
Adi Waiss - Keyboards
Shlomo Yidow - guitar
Haim Kariv - guitar
Shaike Michaeli - guitar
Zvi Shissel, Shiri Einstein - background vocal

"2 перевода":
1. Sa Le'at (Slow Down) - езжай не торопясь
едем на старенькой машине дождливой ночью, дождь усиливается, не видно на метр, езжай не торопясь
Цви говорит, что такие дожди вредны для сельского хозяйства, и я думаю - как тепло дома, и как жалко солдат, что сейчас торчат в грязи - езжай не торопясь
по радио - веселая пьеса, вдруг начинаются новости, спускается ночь, начинается град, а у меня полетел дворник на стекле
Цви жалется, что дует, и просит закрыть щель в окне, я думаю, что моя любимая команда снова проиграла, и жалею болельщиков, кусающих свои локти - езжай не торопясь
дай своим мыслям бежать во все стороны, без нас не начнут - езжай не торопясь
едем на старенькой машине дождливой ночью, завтра я встану рано - увидишь, все будет в порядке
Цви говорит, что ему тяжело дышать, и у него кончились капли, а я думаю, я думаю о тебе, и как ты умеешь меня баловать, я люблю тебя - езжай не торопясь
ты помнишь, как ездили в Эйлат, спускались к морю - все были вместе, пели Битлз на голоса
едем на старенькой машине дождливой ночью, снова дождь усиливается, и не видно на метр
Цви говорит, что открыли звезду, на которой есть жизнь, а я думаю - скоро Газа, и не прилетела бы граната, которая отправит нас к черту - езжай не торопясь
дай своим мыслям бежать во все стороны, без нас не начнут - езжай не торопясь

2. Yeladim Shel Ha-Chaim (Children Of Life) - Дети жизни
Мои глаза открыты, но не видят неба, не видят синевы моря, не видят зелени леса
Я не слышу красивых старых песен, не вижу вещи такими, как они есть
Маленькие дети, большие дети, хорошие дети, плохие дети, ты знаешь, мама - все мы дети жизни
Я вздыхаю, меня обнимают твои руки, я вижу в тебе теплый дом и семью, и мягкий свет в окнах, которые ты открываешь, я свободен, но нет мне отдыха
Маленькие дети, большие дети, хорошие дети, плохие дети, ты знаешь, мама - все мы дети жизни
И врач уже говорит о конце дороги, но я не боюсь, мои глаза открыты, чтобы видеть небеса, синеву неба и зелень деревьев

"Содержание индексной карты (.CUE):":

REM GENRE "Slow Rock"
REM DATE 1974
REM DISCID 7309390A
REM COMMENT "ExactAudioCopy v0.99pb4"
PERFORMER "Arik Einstein & Miki Gavrielov"
TITLE "Slow Down"
FILE "01 - Slow Down.wav" WAVE
TRACK 01 AUDIO
TITLE "Slow Down"
PERFORMER "Arik Einstein & Miki Gavrielov"
PREGAP 00:00:13
INDEX 01 00:00:00
TRACK 02 AUDIO
TITLE "Children Of Life"
PERFORMER "Arik Einstein & Miki Gavrielov"
INDEX 00 04:14:00
FILE "02 - Children Of Life.wav" WAVE
INDEX 01 00:00:00
TRACK 03 AUDIO
TITLE "The Village Time"
PERFORMER "Arik Einstein & Miki Gavrielov"
INDEX 00 04:15:13
FILE "03 - The Village Time.wav" WAVE
INDEX 01 00:00:00
TRACK 04 AUDIO
TITLE "Meddow Ferrytale"
PERFORMER "Arik Einstein & Miki Gavrielov"
INDEX 00 04:05:13
FILE "04 - Meddow Ferrytale.wav" WAVE
INDEX 01 00:00:00
TRACK 05 AUDIO
TITLE "Diplomatic Talks"
PERFORMER "Arik Einstein & Miki Gavrielov"
INDEX 00 04:21:13
FILE "05 - Diplomatic Talks.wav" WAVE
INDEX 01 00:00:00
TRACK 06 AUDIO
TITLE "The Balade Of Zoomati & Labati"
PERFORMER "Arik Einstein & Miki Gavrielov"
INDEX 00 03:55:13
FILE "06 - The Balade Of Zoomati & Labati.wav" WAVE
INDEX 01 00:00:00
TRACK 07 AUDIO
TITLE "I Love You Today"
PERFORMER "Arik Einstein & Miki Gavrielov"
INDEX 00 04:44:13
FILE "07 - I Love You Today.wav" WAVE
INDEX 01 00:00:00
TRACK 08 AUDIO
TITLE "Big Eyes"
PERFORMER "Arik Einstein & Miki Gavrielov"
INDEX 00 03:59:13
FILE "08 - Big Eyes.wav" WAVE
INDEX 01 00:00:00
TRACK 09 AUDIO
TITLE "Randy Newman's Song"
PERFORMER "Arik Einstein & Miki Gavrielov"
INDEX 00 04:48:13
FILE "09 - Randy Newman's Song.wav" WAVE
INDEX 01 00:00:00
TRACK 10 AUDIO
TITLE "Roses Garden"
PERFORMER "Arik Einstein & Miki Gavrielov"
INDEX 00 01:56:13
FILE "10 - Roses Garden.wav" WAVE
INDEX 01 00:00:00

"Лог создания рипа":

Exact Audio Copy V0.99 prebeta 4 from 23. January 2008

EAC extraction logfile from 4. April 2009, 13:13

Arik Einstein & Miki Gavrielov / Slow Down

Used drive : PIONEER DVD-RW DVR-112D Adapter: 0 ID: 0

Read mode : Secure
Utilize accurate stream : Yes
Defeat audio cache : Yes
Make use of C2 pointers : No

Read offset correction : 48
Overread into Lead-In and Lead-Out : No
Fill up missing offset samples with silence : Yes
Delete leading and trailing silent blocks : No
Null samples used in CRC calculations : Yes
Used interface : Installed external ASPI interface
Gap handling : Appended to previous track

Used output format : User Defined Encoder
Selected bitrate : 320 kBit/s
Quality : High
Add ID3 tag : Yes
Command line compressor : C:\Program Files\Exact Audio Copy\Flac\flac.exe
Additional command line options : -V -8 -T "artist=%a" -T "title=%t" -T "album=%g" -T "date=%y" -T "tracknumber=%n" -T "genre=%m" %s


TOC of the extracted CD

Track | Start | Length | Start sector | End sector
---------------------------------------------------------
1 | 0:00.13 | 4:17.62 | 13 | 19349
2 | 4:18.00 | 4:19.00 | 19350 | 38774
3 | 8:37.00 | 4:09.00 | 38775 | 57449
4 | 12:46.00 | 4:24.00 | 57450 | 77249
5 | 17:10.00 | 3:59.00 | 77250 | 95174
6 | 21:09.00 | 4:48.00 | 95175 | 116774
7 | 25:57.00 | 4:02.00 | 116775 | 134924
8 | 29:59.00 | 4:52.00 | 134925 | 156824
9 | 34:51.00 | 2:00.00 | 156825 | 165824
10 | 36:51.00 | 2:30.13 | 165825 | 177087


Track 1

Filename D:\music\rip\Arik Einstein & Miki Gavrielov - Slow Down (1974)\01 - Slow Down.wav

Pre-gap length 0:00:02.17

Peak level 94.0 %
Track quality 100.0 %
Test CRC 4C87CCE5
Copy CRC 4C87CCE5
Track not present in AccurateRip database
Copy OK

Track 2

Filename D:\music\rip\Arik Einstein & Miki Gavrielov - Slow Down (1974)\02 - Children Of Life.wav

Pre-gap length 0:00:03.82

Peak level 94.1 %
Track quality 99.9 %
Test CRC 2BF1295B
Copy CRC 2BF1295B
Track not present in AccurateRip database
Copy OK

Track 3

Filename D:\music\rip\Arik Einstein & Miki Gavrielov - Slow Down (1974)\03 - The Village Time.wav

Pre-gap length 0:00:03.82

Peak level 93.9 %
Track quality 100.0 %
Test CRC 16177F66
Copy CRC 16177F66
Track not present in AccurateRip database
Copy OK

Track 4

Filename D:\music\rip\Arik Einstein & Miki Gavrielov - Slow Down (1974)\04 - Meddow Ferrytale.wav

Pre-gap length 0:00:03.82

Peak level 93.9 %
Track quality 99.9 %
Test CRC AFBAE625
Copy CRC AFBAE625
Track not present in AccurateRip database
Copy OK

Track 5

Filename D:\music\rip\Arik Einstein & Miki Gavrielov - Slow Down (1974)\05 - Diplomatic Talks.wav

Pre-gap length 0:00:02.82

Peak level 92.1 %
Track quality 100.0 %
Test CRC 6B5537D8
Copy CRC 6B5537D8
Track not present in AccurateRip database
Copy OK

Track 6

Filename D:\music\rip\Arik Einstein & Miki Gavrielov - Slow Down (1974)\06 - The Balade Of Zoomati & Labati.wav

Pre-gap length 0:00:03.82

Peak level 93.0 %
Track quality 100.0 %
Test CRC 216351FD
Copy CRC 216351FD
Track not present in AccurateRip database
Copy OK

Track 7

Filename D:\music\rip\Arik Einstein & Miki Gavrielov - Slow Down (1974)\07 - I Love You Today.wav

Pre-gap length 0:00:03.82

Peak level 85.0 %
Track quality 100.0 %
Test CRC 8D341954
Copy CRC 8D341954
Track not present in AccurateRip database
Copy OK

Track 8

Filename D:\music\rip\Arik Einstein & Miki Gavrielov - Slow Down (1974)\08 - Big Eyes.wav

Pre-gap length 0:00:02.82

Peak level 94.1 %
Track quality 100.0 %
Test CRC 3860BBCD
Copy CRC 3860BBCD
Track not present in AccurateRip database
Copy OK

Track 9

Filename D:\music\rip\Arik Einstein & Miki Gavrielov - Slow Down (1974)\09 - Randy Newman's Song.wav

Pre-gap length 0:00:03.82

Peak level 85.1 %
Track quality 100.0 %
Test CRC 489A06E7
Copy CRC 489A06E7
Track not present in AccurateRip database
Copy OK

Track 10

Filename D:\music\rip\Arik Einstein & Miki Gavrielov - Slow Down (1974)\10 - Roses Garden.wav

Pre-gap length 0:00:03.82

Peak level 93.9 %
Track quality 100.0 %
Test CRC A5AE2EDC
Copy CRC A5AE2EDC
Track not present in AccurateRip database
Copy OK


None of the tracks are present in the AccurateRip database

No errors occurred

End of status report

Code:

http://rutracker.org/forum/viewtopic.php?t=1953091
http://www.multiupload.com/WCID7VY61I
http://www.multiupload.com/Z1SCTKOJJD


avatar
Musicgate
Аксакал
Аксакал

Posts : 1018
Join date : 2010-09-01

View user profile

Back to top Go down

Back to top

- Similar topics

 
Permissions in this forum:
You cannot reply to topics in this forum