Gongzilla - Jazz Rock/Fusion

View previous topic View next topic Go down

Gongzilla - Jazz Rock/Fusion

Post by kelia99 on Sat Sep 18, 2010 4:35 pm

Gongzilla - Suffer (1995)



The last international band to lay claim to the mantle of such illustrious '70s improvisationers as HATFIELD AND THE NORTH, NATIONAL HEALTH and the original GONG, GONGZILLA is a muscular quartet that traffics in the kind of music once mislabeled as fusion. Sure to surprise twentysomethings who think jam bands invented adventurous instrumental passages, odd meters and searing melodies, GONGZILLA's latest album East Village Sessions does more with vibraphone, bass, drums and guitar than an entire Vans Warped Tour of pierced-nosed freeloaders could imagine. Not simply an excuse to blow notes, GONGZILLA also delivers subtlety and sophistication. With Benoît Moerlen framing the songs with lush vibraphone chords and sometime-guitarist David Fiuczynski scalding the senses, GONGZILLA creates an atmospheric ride that even when speeding at 200 bpm delivers a litheness that's pratically feline.

- (Ken Micallef) Aug2.

Origin: Multi-National
Genre: Jazz Rock/Fusion
Quality: (FLAC,cue,Log,Front cover,3% Recovery record)
Size: 345 Mb

Track List:

1. Gongzilla (6:36)
2. Bad Habits (3:28)
3. Sing (4:28)
4. Gongzilla's Dilemma (5:17)
5. Mr. Sinister Minister (4:50)
6. Almost You (4:12)
7. Mezzanine (4:15)
8. Hip-Hopnosis (6:48)
9. Allan Qui? (7:22)
10. Senna (4:56)
11. Camel (0:24)

Total Time: 52:00

Line-up Musicians:

- Hansford Rowe / basses
- Bon Lozaga / guitars & e-bow
- Benoit Moerlin / vibes & marimba
- Bobby Thomas / percussion
- Lionel Cordew / drums

With:
- Allan Holdsworth / guitars (on 1, 2, 6, & 9)
- Vic Stevens / drums (on 9 & 10)
- Ben Perowsky / drums (on 5)
- Samuel Rowe / vocalize (on 10)

Releases information
LoLo Records
Log EAC:
Exact Audio Copy V0.99 prebeta 5 from 4. May 2009

Отчёт EAC об извлечении, выполненном 3. марта 2010, 9:25

Gongzilla / Suffer

Дисковод: HL-DT-STDVDRAM GSA-H66N Adapter: 3 ID: 0

Режим чтения : Достоверность
Использование точного потока : Да
Отключение кэша аудио : Да
Использование указателей C2 : Нет

Коррекция смещения при чтении : 667
Способность читать области Lead-in и Lead-out : Нет
Заполнение пропущенных сэмплов тишиной : Да
Удаление блоков с тишиной в начале и конце : Нет
При вычислениях CRC использовались нулевые сэмплы : Да
Интерфейс : Встроенный Win32-интерфейс для Win NT/2000

Выходной формат : Внутренние WAV-операции
Формат сэмплов : 44.100 Гц; 16 бит; стерео


TOC извлечённого CD

Трек | Старт | Длительность | Начальный сектор | Конечный сектор
---------------------------------------------------------------------
1 | 0:00.00 | 6:33.68 | 0 | 29542
2 | 6:33.68 | 3:26.42 | 29543 | 45034
3 | 10:00.35 | 4:25.74 | 45035 | 64983
4 | 14:26.34 | 5:14.16 | 64984 | 88549
5 | 19:40.50 | 4:47.21 | 88550 | 110095
6 | 24:27.71 | 4:09.17 | 110096 | 128787
7 | 28:37.13 | 4:13.12 | 128788 | 147774
8 | 32:50.25 | 6:45.27 | 147775 | 178176
9 | 39:35.52 | 7:20.03 | 178177 | 211179
10 | 46:55.55 | 4:44.24 | 211180 | 232503
11 | 51:40.04 | 0:22.51 | 232504 | 234204
12 | 52:02.55 | 0:05.29 | 234205 | 234608


Характеристики диапазона извлечения и сообщения об ошибках

Выбранный диапазон

Имя файла J:\Новая папка\Gongzilla - Suffer.wav

Пиковый уровень 100.0 %
Качество диапазона 100.0 %
CRC копии 1F882FEB
Копирование... OK

Ошибок не произошло

Конец отчёта


Last edited by kelia99 on Sun Oct 03, 2010 3:18 am; edited 1 time in total

_________________
Fools all of us... Basketball
avatar
kelia99

Posts : 308
Join date : 2010-09-01
Age : 56

View user profile http://in-rock-lossless.moole.ru/

Back to top Go down

Re: Gongzilla - Jazz Rock/Fusion

Post by kelia99 on Sat Sep 18, 2010 4:38 pm

Gongzilla - Thrive(1996)



Origin: Multi-National
Genre: Jazz Rock/Fusion
Quality: (FLAC,cue,Log,Front cover,3% Recovery record)
Size: 322 Mb

Track List:

1. Suffer (8:31)
2. Say It Loud (4:44)
3. Island (8:14)
4. Image (7:59)
5. Shaman (6:47)
6. Les Vosges (5:01)
7. Listen to the Wind (6:58)
8. Image Reprise (3:04)
9. Console Warmer (2:25)

Total Time: 53:00

Line-up Musicians:

- Hansford Rowe / basses; vocals
- Bon Lozaga / guitars; e-bow
- Benoit Moerlen / vibes & marimba
- Gary Husband / drums

With:
- David Torn / guitars

Releases information
LoLo Records
Log EAC:
Exact Audio Copy V0.99 prebeta 5 from 4. May 2009

Отчёт EAC об извлечении, выполненном 3. марта 2010, 10:15

Gongzilla / Thrive

Дисковод: HL-DT-STDVDRAM GSA-H66N Adapter: 3 ID: 0

Режим чтения : Достоверность
Использование точного потока : Да
Отключение кэша аудио : Да
Использование указателей C2 : Нет

Коррекция смещения при чтении : 667
Способность читать области Lead-in и Lead-out : Нет
Заполнение пропущенных сэмплов тишиной : Да
Удаление блоков с тишиной в начале и конце : Нет
При вычислениях CRC использовались нулевые сэмплы : Да
Интерфейс : Встроенный Win32-интерфейс для Win NT/2000

Выходной формат : Внутренние WAV-операции
Формат сэмплов : 44.100 Гц; 16 бит; стерео


TOC извлечённого CD

Трек | Старт | Длительность | Начальный сектор | Конечный сектор
---------------------------------------------------------------------
1 | 0:00.00 | 8:31.07 | 0 | 38331
2 | 8:31.07 | 4:44.08 | 38332 | 59639
3 | 13:15.15 | 8:13.05 | 59640 | 96619
4 | 21:28.20 | 7:59.55 | 96620 | 132599
5 | 29:28.00 | 6:47.60 | 132600 | 163184
6 | 36:15.60 | 4:59.49 | 163185 | 185658
7 | 41:15.34 | 6:59.18 | 185659 | 217101
8 | 48:14.52 | 3:03.45 | 217102 | 230871
9 | 51:18.22 | 2:25.28 | 230872 | 241774


Характеристики диапазона извлечения и сообщения об ошибках

Выбранный диапазон

Имя файла J:\Новая папка\Gongzilla - Thrive.wav

Пиковый уровень 100.0 %
Качество диапазона 99.9 %
CRC копии 9CB00B65
Копирование... OK

Ошибок не произошло

Конец отчёта


Last edited by kelia99 on Sun Oct 03, 2010 3:19 am; edited 1 time in total

_________________
Fools all of us... Basketball
avatar
kelia99

Posts : 308
Join date : 2010-09-01
Age : 56

View user profile http://in-rock-lossless.moole.ru/

Back to top Go down

Re: Gongzilla - Jazz Rock/Fusion

Post by kelia99 on Sat Sep 18, 2010 4:40 pm

Gongzilla - Minden, Germany( Jazz Club Minden), February 23, 2002[bootleg]



Бутлег, но очень хорошего качества. Не всякая студия ещё так запишет.

Here is a nice soundboard from a brief Germany tour
where GZ were joined by Pierre Moerlen on drums.
This is only the second half of the show. The first
half was not recorded.

Origin:Multi-National
Genre: Jazz Rock/Fusion
Quality: (FLAC,cue,Log,Cover,3% Recovery record)
Size: 281 Mb

Track List:

01.Gongzilla's Dilemma
02.Say No More
03.Expresso
04.My Doctor Told Me So
05.No Pennies Please
06.Downwind
07.Soli
08.Gongzilla
09.One World
10.Image

Total Time: 60:30



Line-up Musicians:

-Pierre Moerlen / Drums, Percussion
-Benoit Moerlen / Vibraphone, Marimba
-Hansford Rowe / Bass, Just Intonation Bass
-Bon Lozaga / Guitar, Effects
Log EAC:
Exact Audio Copy V0.99 prebeta 5 from 4. May 2009

Отчёт EAC об извлечении, выполненном 9. марта 2010, 16:03

Gongzilla / Minden, Germany

Дисковод: HL-DT-STDVDRAM GSA-H66N Adapter: 3 ID: 0

Режим чтения : Достоверность
Использование точного потока : Да
Отключение кэша аудио : Да
Использование указателей C2 : Нет

Коррекция смещения при чтении : 667
Способность читать области Lead-in и Lead-out : Нет
Заполнение пропущенных сэмплов тишиной : Да
Удаление блоков с тишиной в начале и конце : Нет
При вычислениях CRC использовались нулевые сэмплы : Да
Интерфейс : Встроенный Win32-интерфейс для Win NT/2000

Выходной формат : Внутренние WAV-операции
Формат сэмплов : 44.100 Гц; 16 бит; стерео


TOC извлечённого CD

Трек | Старт | Длительность | Начальный сектор | Конечный сектор
---------------------------------------------------------------------
1 | 0:00.00 | 6:05.53 | 0 | 27427
2 | 6:05.53 | 6:50.65 | 27428 | 58242
3 | 12:56.43 | 6:45.42 | 58243 | 88659
4 | 19:42.10 | 2:13.17 | 88660 | 98651
5 | 21:55.27 | 5:29.70 | 98652 | 123396
6 | 27:25.22 | 8:21.23 | 123397 | 160994
7 | 35:46.45 | 9:28.68 | 160995 | 203662
8 | 45:15.38 | 7:18.68 | 203663 | 236580
9 | 52:34.31 | 1:53.03 | 236581 | 245058
10 | 54:27.34 | 6:03.08 | 245059 | 272291


Характеристики диапазона извлечения и сообщения об ошибках

Выбранный диапазон

Имя файла J:\GONGZILLA-Minden, Germany( Jazz Club Minden), February 23, 2002\Gongzilla - Minden, Germany.wav

Пиковый уровень 99.8 %
Качество диапазона 100.0 %
CRC копии 42E06A21
Копирование... OK

Ошибок не произошло


AccurateRip: сводка

Трек 1 нет в базе данных
Трек 2 нет в базе данных
Трек 3 нет в базе данных
Трек 4 нет в базе данных
Трек 5 нет в базе данных
Трек 6 нет в базе данных
Трек 7 нет в базе данных
Трек 8 нет в базе данных
Трек 9 нет в базе данных
Трек 10 нет в базе данных

Ни одного трека нет в базе AccurateRip

Конец отчёта

_________________
Fools all of us... Basketball
avatar
kelia99

Posts : 308
Join date : 2010-09-01
Age : 56

View user profile http://in-rock-lossless.moole.ru/

Back to top Go down

Re: Gongzilla - Jazz Rock/Fusion

Post by Sponsored content


Sponsored content


Back to top Go down

View previous topic View next topic Back to top

- Similar topics

 
Permissions in this forum:
You cannot reply to topics in this forum