Jeronimo (Germany) - KrautRock

View previous topic View next topic Go down

Jeronimo (Germany) - KrautRock

Post by kelia99 on Sat Sep 18, 2010 4:15 pm

Jeronimo - Cosmic Blues (1970)[2002]



Jeronimo was founded in 1969 and in '69/'70 they had their first two hits "He Ya" and "Na Na Hey Hey". With these two chartbreakers, Jeronimo climbed to the number 1 position in almost all European countries.

In 1970 Jeronimo and "Steppenwolf" toured successfully through Germany and in the same year Jeronimo partook in the legendary "Progressive Pop Festival" in Cologne. Following that, Jeronimo shared the headlines with such groups as "Deep Purple" and "Golden Earring" at various European open-air festivals.

In 1970, Jeronimo, together with Creedence Clearwater, presented the album "Spirit Orgaszmus", which was a success throughout all of Europe.

After 30 years and millions of records sold worldwide, Jeronimo is still cult. In 1999/2000, their hits "Na Na Hey Hey" and "He Ya" were re-released on numerous hit-compilations.

The CD's "Cosmic Blues", "Time Ride" and "Best of" have been available in record stores since 1991.

After numerous negotiations with "the purple record-company" in Frankfurt, Ringo Funk successfully acquired the rights to all of Jeronimo's songs in November of 2000.

In the spring of 2002, 4 new CD's "Jeronimo", "Cosmic Blues", "Time Ride" and "Best of" will be released, which have been digitally mastered from the original recordings. There will be a bonus track on each of the CD's (partially with previously unreleased material).

Origin: Germany
Genre: KrautRock
Quality: (FLAC,cue,Log,Cover,3% Recovery record)
Size: 275 Mb

Track List:

1. News (3:01)
2. The Key (3:00)
3. Hands (2:40)
4. So Nice to Know (2:03)
5. Na Na Hey Hey (3:37)
6. Let the Sunshine In (1:57)
7. Highjack (2:58)
8. Number 5 (5:22)
9. No No No (3:53)
10. Never Goin' Back (2:37)
11. The Light Life Needs (2:14)
12. Heya (5:54)



Line-up Musicians:

- Gunnar Schafer / vocals, bass guitar
- Rainer Marz / guitars
- Walter Ortel / keyboards, vocals
- Ringo Funk / drums
Log EAC:
Exact Audio Copy V0.99 prebeta 5 from 4. May 2009

Отчёт EAC об извлечении, выполненном 14. июля 2010, 21:12

Jeronimo / Cosmic Blues

Дисковод: HL-DT-STDVDRAM GSA-H66N Adapter: 3 ID: 0

Режим чтения : Достоверность
Использование точного потока : Да
Отключение кэша аудио : Да
Использование указателей C2 : Нет

Коррекция смещения при чтении : 667
Способность читать области Lead-in и Lead-out : Нет
Заполнение пропущенных сэмплов тишиной : Да
Удаление блоков с тишиной в начале и конце : Нет
При вычислениях CRC использовались нулевые сэмплы : Да
Интерфейс : Встроенный Win32-интерфейс для Win NT/2000

Выходной формат : Внутренние WAV-операции
Формат сэмплов : 44.100 Гц; 16 бит; стерео


TOC извлечённого CD

Трек | Старт | Длительность | Начальный сектор | Конечный сектор
---------------------------------------------------------------------
1 | 0:00.00 | 3:03.20 | 0 | 13744
2 | 3:03.20 | 3:01.72 | 13745 | 27391
3 | 6:05.17 | 2:40.27 | 27392 | 39418
4 | 8:45.44 | 2:04.66 | 39419 | 48784
5 | 10:50.35 | 3:39.28 | 48785 | 65237
6 | 14:29.63 | 1:59.40 | 65238 | 74202
7 | 16:29.28 | 2:59.50 | 74203 | 87677
8 | 19:29.03 | 5:24.29 | 87678 | 112006
9 | 24:53.32 | 3:54.51 | 112007 | 129607
10 | 28:48.08 | 2:39.29 | 129608 | 141561
11 | 31:27.37 | 2:16.01 | 141562 | 151762
12 | 33:43.38 | 3:30.48 | 151763 | 167560


Характеристики диапазона извлечения и сообщения об ошибках

Выбранный диапазон

Имя файла J:\Jeronimo - Cosmic Blues (1970)\Jeronimo - Cosmic Blues.wav

Пиковый уровень 98.8 %
Качество диапазона 100.0 %
CRC копии AEC38FFF
Копирование... OK

Ошибок не произошло


AccurateRip: сводка

Трек 1 нет в базе данных
Трек 2 нет в базе данных
Трек 3 нет в базе данных
Трек 4 нет в базе данных
Трек 5 нет в базе данных
Трек 6 нет в базе данных
Трек 7 нет в базе данных
Трек 8 нет в базе данных
Трек 9 нет в базе данных
Трек 10 нет в базе данных
Трек 11 нет в базе данных
Трек 12 нет в базе данных

Ни одного трека нет в базе AccurateRip

Конец отчёта



##############################################################################################


Jeronimo - Jeronimo (1971)[2002]



Origin: Germany
Genre: KrautRock
Quality: (FLAC,cue,Log,Cover,3% Recovery record)
Size: 329 Mb

Track List:

1. Sunday's Child (4:25)
2. Shades (3:27)
3. Reminiscenses (1:01)
4. How I'd Love to Be Home (4:30)
5. End of Our Time (4:08)
6. Understanding (4:06)
7. Silence of the Night (3:36)
8. Hugudila (7:49)
9. You Know I Do (5:29)
10.Save our Souls.SOS(bonus)(3.31)



Line-up Musicians:

- Rainer Marz / guitar
- Gunnar Schäfer / bass, vocals
- Manfred "Ringo" Funk / drums, percussion, vocals
- Michael Koch / guitar, vocals
Log EAC:
Exact Audio Copy V0.99 prebeta 5 from 4. May 2009

Отчёт EAC об извлечении, выполненном 14. июля 2010, 21:37

Jeronimo / Jeronimo

Дисковод: HL-DT-STDVDRAM GSA-H66N Adapter: 3 ID: 0

Режим чтения : Достоверность
Использование точного потока : Да
Отключение кэша аудио : Да
Использование указателей C2 : Нет

Коррекция смещения при чтении : 667
Способность читать области Lead-in и Lead-out : Нет
Заполнение пропущенных сэмплов тишиной : Да
Удаление блоков с тишиной в начале и конце : Нет
При вычислениях CRC использовались нулевые сэмплы : Да
Интерфейс : Встроенный Win32-интерфейс для Win NT/2000

Выходной формат : Внутренние WAV-операции
Формат сэмплов : 44.100 Гц; 16 бит; стерео


TOC извлечённого CD

Трек | Старт | Длительность | Начальный сектор | Конечный сектор
---------------------------------------------------------------------
1 | 0:00.00 | 4:24.54 | 0 | 19853
2 | 4:24.54 | 3:28.71 | 19854 | 35524
3 | 7:53.50 | 1:00.72 | 35525 | 40096
4 | 8:54.47 | 4:30.19 | 40097 | 60365
5 | 13:24.66 | 4:10.05 | 60366 | 79120
6 | 17:34.71 | 4:07.67 | 79121 | 97712
7 | 21:42.63 | 3:38.09 | 97713 | 114071
8 | 25:20.72 | 7:50.66 | 114072 | 149387
9 | 33:11.63 | 5:30.65 | 149388 | 174202
10 | 38:42.53 | 3:33.31 | 174203 | 190208


Характеристики диапазона извлечения и сообщения об ошибках

Выбранный диапазон

Имя файла J:\Jeronimo - Jeronimo (1971)\Jeronimo - Jeronimo.wav

Пиковый уровень 98.8 %
Качество диапазона 100.0 %
CRC копии 02B06093
Копирование... OK

Ошибок не произошло


AccurateRip: сводка

Трек 1 нет в базе данных
Трек 2 нет в базе данных
Трек 3 нет в базе данных
Трек 4 нет в базе данных
Трек 5 нет в базе данных
Трек 6 нет в базе данных
Трек 7 нет в базе данных
Трек 8 нет в базе данных
Трек 9 нет в базе данных
Трек 10 нет в базе данных

Ни одного трека нет в базе AccurateRip

Конец отчёта

_________________
Fools all of us... Basketball
avatar
kelia99

Posts : 308
Join date : 2010-09-01
Age : 56

View user profile http://in-rock-lossless.moole.ru/

Back to top Go down

View previous topic View next topic Back to top

- Similar topics

 
Permissions in this forum:
You cannot reply to topics in this forum