Titus Groan(UK) - Titus Groan (1970)

View previous topic View next topic Go down

Titus Groan(UK) - Titus Groan (1970)

Post by kelia99 on Sat Sep 18, 2010 3:39 am

Titus Groan(UK) - Titus Groan (1970)



Titus Groan biography
Taking their name from Mervyn Peake's gothic fantasy novel, Titus Groan was a quartet lead by guitar/keyboardist and singer Stewart Cowell and wind player Tony Priestland. Their sound approaches the early UK prog (sometimes called proto-prog), all tracks being over 5 minutes long and often fronted by wind instruments is promising, but ultimately deceiving as the songs lack depth. Centred around the great 12-mins Hall Of Bright Carvings track (also a Peake theme), the album was released in early 1970 on the collectible Dawn label Titus Groan also release a three track single the same year, all three tracks appearing as bonus on the See For Miles label CD reissue, being named Titus Groan Plus.

Year: 1970
Origin: UK
Genre: Crossover Prog
Quality: (FLAC,cue,Log, cover,3% Recovery record)
Size: 300 mb

Track List:

1. It Wasn't For You (5:33)
2. Hall Of Bright Carvings (11:37)
a) Theme
b) Dusty High-Value Hall
c) The Burning
d) Theme
3. I Can't Change (5:41)
4. It's All Up With Us (6:07)
5. Fuschia (6:18)

Bonus Tracks on CD Reissue:

6. Open The Door Homer (3:30)
7. Woman Of The World (4:32)
8. Liverpool (5:54)

Total Time:48:55



Line-up / Musicians :

- Stuart Cowell / keyboards, guitar, vocals
- John Lee / bass
- Tony Priestland / saxophone, flute, oboe
- Jim Toomey / drums

Releases information
LP Dawn Label DNLS 3012 (1970)

Log EAC:
Exact Audio Copy V0.99 prebeta 5 from 4. May 2009

EAC extraction logfile from 14. August 2010, 15:25

Titus Groan / Titus Groan

Used drive : HL-DT-STDVDRAM GSA-H66N Adapter: 3 ID: 0

Read mode : Secure
Utilize accurate stream : Yes
Defeat audio cache : Yes
Make use of C2 pointers : No

Read offset correction : 667
Overread into Lead-In and Lead-Out : No
Fill up missing offset samples with silence : Yes
Delete leading and trailing silent blocks : No
Null samples used in CRC calculations : Yes
Used interface : Native Win32 interface for Win NT & 2000

Used output format : Internal WAV Routines
Sample format : 44.100 Hz; 16 Bit; Stereo


TOC of the extracted CD

Track | Start | Length | Start sector | End sector
---------------------------------------------------------
1 | 0:00.00 | 5:32.71 | 0 | 24970
2 | 5:32.71 | 11:39.17 | 24971 | 77412
3 | 17:12.13 | 5:40.55 | 77413 | 102967
4 | 22:52.68 | 6:08.54 | 102968 | 130621
5 | 29:01.47 | 6:05.44 | 130622 | 158040
6 | 35:07.16 | 3:28.57 | 158041 | 173697
7 | 38:35.73 | 4:27.08 | 173698 | 193730
8 | 43:03.06 | 5:52.59 | 193731 | 220189


Range status and errors

Selected range

Filename E:\Titus Groan - Titus Groan 1970\Titus Groan - Titus Groan.wav

Peak level 97.7 %
Range quality 100.0 %
Copy CRC 903B1475
Copy OK

No errors occurred


AccurateRip summary

Track 1 not present in database
Track 2 not present in database
Track 3 not present in database
Track 4 not present in database
Track 5 not present in database
Track 6 not present in database
Track 7 not present in database
Track 8 not present in database

None of the tracks are present in the AccurateRip database

End of status report


_________________
Fools all of us... Basketball
avatar
kelia99

Posts : 308
Join date : 2010-09-01
Age : 55

View user profile http://in-rock-lossless.moole.ru/

Back to top Go down

View previous topic View next topic Back to top

- Similar topics

 
Permissions in this forum:
You cannot reply to topics in this forum