Don 'Sugar Cane' Harris - Fiddler On The Rock - 1971(2007 Remastered)

View previous topic View next topic Go down

Don 'Sugar Cane' Harris - Fiddler On The Rock - 1971(2007 Remastered)

Post by kelia99 on Sat Sep 18, 2010 2:58 am

Don 'Sugar Cane' Harris - Fiddler On The Rock - 1971(2007 Remastered)



Don "Sugarcane" Harris (born Don Francis Bowman Harris, June 18, 1938[1] - November 30 (or December 1), 1999) was an American rock & roll violinist and guitarist. Harris was born and raised in Pasadena, California, and started an act called Don and Dewey with his childhood friend Dewey Terry in the mid 1950s. Although they were recorded by Art Rupe on his Specialty label, mostly utilizing the services of legendary drummer Earl Palmer, Don and Dewey didn't have any hits. However, Harris and Terry co-authored such early rock and roll classics as "Farmer John", "Justine", "Leavin' It All Up to you", and "Big Boy Pete," all of which became hits for other artists.

At some point in his career, Harris was given the nickname "Sugarcane" by LA bandleader Johnny Otis and it was to remain with him throughout his life.

After separating from Dewey Terry in the 1960s Harris moved almost exclusively over to the electric violin. He was to reappear as a sideman with John Mayall & the Bluesbreakers and Frank Zappa, most recognized for his appearances on Hot Rats, and on the Mothers of Invention albums Burnt Weeny Sandwich and Weasels Ripped My Flesh. His lead vocal and blues violin solo on a cover of Little Richard's "Directly From My Heart to You" on Weasels, and his extended solo on the lengthy "Little House I Used To Live In" on Weeny are considered highlights of those albums.

Harris's struggles with substance abuse were to lead to his becoming erratic, not so much as a performer while on stage, but as a person whom it became increasing difficult to get on stage.

During the early 1970s, Sugarcane fronted the Pure Food and Drug Act which included drummer Paul Lagos, guitarists Harvey Mandel and Randy Resnick, and bassist Victor Conte, who was the founder of the Bay Area Laboratory Co-operative (BALCO).

In the 1980s, Sugarcane was a member of the Los Angeles-based experimental rock band Tupelo Chain Sex.

Harris died on November 30, 1999 in Los Angeles, California.[2] Paul Lagos died on October 19th, 2009.

Year: 1971
Origin: USA
Genre: Blues-rock/Jazz-rock
Quality: (FLAC,cue,Log, cover,3% Recovery record)
Size: 422 mb

Track List:

01. Eleanor Rigby
02. I'm Gonna Miss You
03. Buzzard's Cousin
04. The Pig's Eye
05. So Alone
06. No Inspiration
Bonus Tracks:
07. Till The Day I Die
08. My Soul's On Fire
09. A Little Soul Food
10. What Comes Around Goes Around
11. Eleanor Rigby

Total Time:69:39




Line-up / Musicians :

-Don 'Sugar Cane' Harris / electric violin, vocals
-Harvey Mandel / guitar
-Larry Taylor / bass
-Paul Lagos / drums
-Randy Resnick / rythm guitar
-Victor Conte / bass

Tracks 1-6 - Studio Recording, Villingen, Germany, February 1971
Tracks 7-11 - Live Concert Recording, The Fresh Air Tavern, Seattle, Washington, 1972
Log EAC:
Exact Audio Copy V0.99 prebeta 4 from 23. January 2008

Отчёт EAC об извлечении, выполненном 5. августа 2010, 9:00

Don 'Sugar Cane' Harris / Fiddler On The Rock

Дисковод: HL-DT-STDVDRAM GSA-H66N Adapter: 3 ID: 0

Режим чтения : Достоверность
Использование точного потока : Да
Отключение кэша аудио : Да
Использование указателей C2 : Нет

Коррекция смещения при чтении : 667
Способность читать области Lead-in и Lead-out : Нет
Заполнение пропущенных сэмплов тишиной : Да
Удаление блоков с тишиной в начале и конце : Нет
При вычислениях CRC использовались нулевые сэмплы : Да
Интерфейс : Встроенный Win32-интерфейс для Win NT/2000

Выходной формат : Внутренние WAV-операции
Формат сэмплов : 44.100 Гц; 16 бит; стерео


TOC извлечённого CD

Трек | Старт | Длительность | Начальный сектор | Конечный сектор
---------------------------------------------------------------------
1 | 0:00.00 | 9:35.37 | 0 | 43161
2 | 9:35.37 | 4:48.17 | 43162 | 64778
3 | 14:23.54 | 6:04.37 | 64779 | 92115
4 | 20:28.16 | 6:27.52 | 92116 | 121192
5 | 26:55.68 | 7:05.52 | 121193 | 153119
6 | 34:01.45 | 4:00.42 | 153120 | 171161
7 | 38:02.12 | 7:08.17 | 171162 | 203278
8 | 45:10.29 | 4:12.57 | 203279 | 222235
9 | 49:23.11 | 4:03.57 | 222236 | 240517
10 | 53:26.68 | 4:21.17 | 240518 | 260109
11 | 57:48.10 | 11:51.42 | 260110 | 313476


Характеристики диапазона извлечения и сообщения об ошибках

Выбранный диапазон

Имя файла E:\Don 'Sugar Cane' Harris - Fiddler On The Rock (1971)\Don 'Sugar Cane' Harris - Fiddler On The Rock.wav

Пиковый уровень 100.0 %
Качество диапазона 99.9 %
CRC копии BF3B9236
Копирование... OK

Ошибок не произошло


AccurateRip: сводка

Трек 1 точное извлечение (доверие 4) [AB6525C6]
Трек 2 точное извлечение (доверие 4) [98DEFF2B]
Трек 3 точное извлечение (доверие 4) [9A03FC13]
Трек 4 точное извлечение (доверие 4) [E67D9421]
Трек 5 точное извлечение (доверие 4) [85DAD882]
Трек 6 точное извлечение (доверие 4) [481E3630]
Трек 7 точное извлечение (доверие 4) [5DE17BDB]
Трек 8 точное извлечение (доверие 4) [BCC9C749]
Трек 9 точное извлечение (доверие 4) [46730B18]
Трек 10 точное извлечение (доверие 4) [A7EA50BE]
Трек 11 точное извлечение (доверие 4) [2D6583D1]

Все треки извлечены точно

Конец отчёта


_________________
Fools all of us... Basketball
avatar
kelia99

Posts : 308
Join date : 2010-09-01
Age : 55

View user profile http://in-rock-lossless.moole.ru/

Back to top Go down

View previous topic View next topic Back to top

- Similar topics

 
Permissions in this forum:
You cannot reply to topics in this forum