Pell Mell - Rhapsody (1975)

View previous topic View next topic Go down

Pell Mell - Rhapsody (1975)

Post by kelia99 on Sat Sep 18, 2010 1:33 am

Pell Mell - Rhapsody (1975)



Pell Mell biography
Not to be confused with a 1980s American band of the same name, Pell Mell was a symphonic band from Marburg, Germany (Marburg is also the name of the debut album). The band was formed in 1971 by keyboard player Otto Pusch, bass player Jorg Gotzfried, Rudolf Schon on vocals, recorder, and guitar, drummer Mitch Kniesmeijer, and Thomas Schmitt on violin, guitar, and vocals.

The first album is characterized by a rough edge, especially in the vocals. Subsequent albums would smooth out the edges. However, there are aspects reminiscent of Hawkwind, HP Lovecraft, The Nice, and even ELP. Mellotron and classical themes are abundant. It also should be pleasing to fans Krautrock.

Over the next releases they would explore the realm of Mike Oldfield, and then settle into keyboard dominated symphonic. The old psychedelic sounds completely gone. Much of the music is considered some of the best German symphonic ever recorded.

The usual lineup changes occurred over time, and the band began to disintegrate after 1978's "Only a Star." Thomas Schmitt formed the '80s style rock band Skyrider, with former band mate Otto Pusch. They released one self-titled album, and then took back the name Pell Mell. This incarnation released "Moldau" in 1981. However, the old magic was gone, and that is where the Pell Mell story ends.

Origin: Germany
Genre: Symphonic Prog
Quality: (FLAC,cue,Log,Cover,3% Recovery record)
Size: 269 Mb

Track List:

1. Rhapsody - Frost of an alien darkness (9:24)
2. Rhapsody - Wanderer (2:31)
3. Rhapsody - Can Can (3:38)
4. Prelude (3:18)
5. Desert in your mind (6:18)
6. The riot (6:06)
7. Paris the past (8:10)

Total Time: 39:25





Line-up Musicians:

- Gotz Draeger / bass
- Cherry Hochdorfer / keyboards
- Bruno Kniesmeijer / percussion, drums
- Ralph Lipmann / guitar, keyboards, vocals
- Thomas Schmitt / flute, violin, guitar (electric), keyboards, vocals
- Rudolph Schon / percussion, vocals

Releases information
LP Venus 761PMAB (1976) / CD Spalax 97689 (1998)
Log EAC:
Exact Audio Copy V0.99 prebeta 5 from 4. May 2009

Отчёт EAC об извлечении, выполненном 11. июля 2010, 11:02

Pell Mell / Rhapsody

Дисковод: HL-DT-STDVDRAM GSA-H66N Adapter: 3 ID: 0

Режим чтения : Достоверность
Использование точного потока : Да
Отключение кэша аудио : Да
Использование указателей C2 : Нет

Коррекция смещения при чтении : 667
Способность читать области Lead-in и Lead-out : Нет
Заполнение пропущенных сэмплов тишиной : Да
Удаление блоков с тишиной в начале и конце : Нет
При вычислениях CRC использовались нулевые сэмплы : Да
Интерфейс : Встроенный Win32-интерфейс для Win NT/2000

Выходной формат : Внутренние WAV-операции
Формат сэмплов : 44.100 Гц; 16 бит; стерео


TOC извлечённого CD

Трек | Старт | Длительность | Начальный сектор | Конечный сектор
---------------------------------------------------------------------
1 | 0:00.32 | 9:25.15 | 32 | 42421
2 | 9:25.47 | 2:30.38 | 42422 | 53709
3 | 11:56.10 | 3:44.40 | 53710 | 70549
4 | 15:40.50 | 3:22.17 | 70550 | 85716
5 | 19:02.67 | 6:23.50 | 85717 | 114491
6 | 25:26.42 | 6:14.05 | 114492 | 142546
7 | 31:40.47 | 8:12.70 | 142547 | 179516


Характеристики диапазона извлечения и сообщения об ошибках

Выбранный диапазон

Имя файла J:\Pell Mell - Rhapsody (1974)\Pell Mell - Rhapsody.wav

Пиковый уровень 99.6 %
Качество диапазона 100.0 %
CRC копии C3A8187E
Копирование... OK

Ошибок не произошло


AccurateRip: сводка

Трек 1 нет в базе данных
Трек 2 нет в базе данных
Трек 3 нет в базе данных
Трек 4 нет в базе данных
Трек 5 нет в базе данных
Трек 6 нет в базе данных
Трек 7 нет в базе данных

Ни одного трека нет в базе AccurateRip

Конец отчёта


_________________
Fools all of us... Basketball
avatar
kelia99

Posts : 308
Join date : 2010-09-01
Age : 56

View user profile http://in-rock-lossless.moole.ru/

Back to top Go down

View previous topic View next topic Back to top

- Similar topics

 
Permissions in this forum:
You cannot reply to topics in this forum