Fjieri - Endless(2009)

View previous topic View next topic Go down

Fjieri - Endless(2009)

Post by kelia99 on Sat Sep 18, 2010 1:08 am

Fjieri - Endless(2009)



10 years in the making, Fjieri's debut album Endless represents the conclusion to a meticulously executed labour of love. The band, led by Stefano Panunzi and Nicola Lori, are joined by guest musicians, including Mick Karn, Tim Bowness (No-Man) and Porcupine Tree members, Gavin Harrison and Richard Barbieri.
Co-produced by Barbieri, the album combines Ambient and Progressive Rock influences to create a sophisticated sound that incorporates delicate atmospherics, rich melodies, looping rhythms and hard-hitting riffs. Recalling aspects of Rain Tree Crow, Pink Floyd, Porcupine Tree, Eno, King Crimson and No-Man, Endless is a powerful debut statement this promising Italian band.

Year: 2009
Origin: Italy
Genre: Progressive rock,Art/Rock,Ambient
Quality: (FLAC,cue,Log, 3% Recovery record)
Size: 297 mb

Track List:

01. A Reality Apart
02. A Big Hope
03. Ad Occhi Chiusi (Vocals by Andrea Chimenti)
04. Marcinelle
05. Breathing The Thin Air (Vocals by Tim Bowness)
06. Endless (Vocals by Tim Bowness)
07. Soul Eaters (Vocals by Haco)
08. The Breath Of The Earth
09. Lotus Flower

Total Time:48:32

Line-up Musicians:

-Elio Lori / basso
-Nicola Lori / chitarre
-Stefano Panunzi / tastiere e loop
-Angelo Strizzi / batteria e percussioni

Guest Musicians:

-Gavin Harrison (Porcupine Tree)
-Richard Barbieri (Porcupine Tree)
-Tim Bowness (No-Man)
-Mick Karn (Japan)
-Andrea Chimenti
-Peter Chilvers (Eno)
-Nicola Alesini
Log EAC:
Exact Audio Copy V0.99 prebeta 4 from 23. January 2008

Отчёт EAC об извлечении, выполненном 29. декабря 2009, 17:04

Fjieri / Endless

Дисковод: HL-DT-STDVDRAM GSA-H66N Adapter: 3 ID: 0

Режим чтения : Достоверность
Использование точного потока : Да
Отключение кэша аудио : Да
Использование указателей C2 : Нет

Коррекция смещения при чтении : 667
Способность читать области Lead-in и Lead-out : Нет
Заполнение пропущенных сэмплов тишиной : Да
Удаление блоков с тишиной в начале и конце : Нет
При вычислениях CRC использовались нулевые сэмплы : Да
Интерфейс : Встроенный Win32-интерфейс для Win NT/2000

Выходной формат : Внутренние WAV-операции
Формат сэмплов : 44.100 Гц; 16 бит; стерео


TOC извлечённого CD

Трек | Старт | Длительность | Начальный сектор | Конечный сектор
---------------------------------------------------------------------
1 | 0:00.00 | 4:34.69 | 0 | 20618
2 | 4:34.69 | 5:30.58 | 20619 | 45426
3 | 10:05.52 | 5:57.08 | 45427 | 72209
4 | 16:02.60 | 5:37.17 | 72210 | 97501
5 | 21:40.02 | 6:13.58 | 97502 | 125534
6 | 27:53.60 | 7:05.20 | 125535 | 157429
7 | 34:59.05 | 4:56.33 | 157430 | 179662
8 | 39:55.38 | 5:50.00 | 179663 | 205912
9 | 45:45.38 | 2:46.46 | 205913 | 218408


Характеристики диапазона извлечения и сообщения об ошибках

Выбранный диапазон

Имя файла J:\Новая папка\Fjieri - Endless.wav

Пиковый уровень 100.0 %
Качество диапазона 99.9 %
CRC копии 0FBC84EE
Копирование... OK

Ошибок не произошло

Конец отчёта

_________________
Fools all of us... Basketball
avatar
kelia99

Posts : 308
Join date : 2010-09-01
Age : 55

View user profile http://in-rock-lossless.moole.ru/

Back to top Go down

View previous topic View next topic Back to top


 
Permissions in this forum:
You cannot reply to topics in this forum