Brian Bromberg - Bass Ackwards (2004)

View previous topic View next topic Go down

Brian Bromberg - Bass Ackwards (2004)

Post by kelia99 on Sat Sep 18, 2010 1:06 am

Brian Bromberg - Bass Ackwards (2004)



Year: 2004
Origin: USA
Genre: Jazz Rock/Fusion
Quality: (FLAC,cue,Log,Cover,3% Recovery record)
Size: 378Mb
Source: My CD collection

Track List:

01. Through The Window [0:05:37.09]
02. The Dungeon [0:08:47.97]
03. Good Morning [0:05:21.53]
04. Trade Show [0:05:57.89]
05. Carlos [0:05:50.66]
06. Top Down [0:05:35.66]
07. Fooled Ya! [0:05:38.73]
08. The Message Within [0:03:54.26]
09. Flight Of The Phoenix [0:05:40.70]

Total Time: 52:24

Line-up Musicians:

-Brian Bromberg - 4,5 string bass, piccolo bass, tenor bass, midi bass, acoustic piccolo bass
-Dan Segal - keyboards, organ (3,5 )
-Joel Taylor - drums
Log EAC:
Exact Audio Copy V0.99 prebeta 4 from 23. January 2008

Отчёт EAC об извлечении, выполненном 29. июня 2009, 7:44

Brian Bromberg / Bass Ackwards

Дисковод: HL-DT-STDVDRAM GSA-H66N Adapter: 3 ID: 0

Режим чтения : Достоверность
Использование точного потока : Да
Отключение кэша аудио : Да
Использование указателей C2 : Нет

Коррекция смещения при чтении : 667
Способность читать области Lead-in и Lead-out : Нет
Заполнение пропущенных сэмплов тишиной : Да
Удаление блоков с тишиной в начале и конце : Нет
При вычислениях CRC использовались нулевые сэмплы : Да
Интерфейс : Встроенный Win32-интерфейс для Win NT/2000

Выходной формат : Внутренние WAV-операции
Формат сэмплов : 44.100 Гц; 16 бит; стерео


TOC извлечённого CD

Трек | Старт | Длительность | Начальный сектор | Конечный сектор
---------------------------------------------------------------------
1 | 0:00.00 | 5:37.07 | 0 | 25281
2 | 5:37.07 | 8:47.73 | 25282 | 64879
3 | 14:25.05 | 5:21.40 | 64880 | 88994
4 | 19:46.45 | 5:57.67 | 88995 | 115836
5 | 25:44.37 | 5:50.50 | 115837 | 142136
6 | 31:35.12 | 5:35.50 | 142137 | 167311
7 | 37:10.62 | 5:38.55 | 167312 | 192716
8 | 42:49.42 | 3:54.20 | 192717 | 210286
9 | 46:43.62 | 5:40.53 | 210287 | 235839


Характеристики диапазона извлечения и сообщения об ошибках

Выбранный диапазон

Имя файла F:\Rapida\Lossless\Brian Bromberg-2001\Brian Bromberg - Bass Ackwards.wav

Пиковый уровень 98.7 %
Качество диапазона 100.0 %
CRC копии 5E26EE62
Копирование... OK

Ошибок не произошло


AccurateRip: сводка

Трек 1 точность не определена (достоверность 1) [02E0B15B], AccurateRip вернул [43121B8B]
Трек 2 точность не определена (достоверность 1) [D8976DE0], AccurateRip вернул [388C32C0]
Трек 3 точность не определена (достоверность 1) [118BA302], AccurateRip вернул [DBF3CABA]
Трек 4 точность не определена (достоверность 1) [5BC7A88B], AccurateRip вернул [837DFB4B]
Трек 5 точность не определена (достоверность 1) [77896A23], AccurateRip вернул [B90B835B]
Трек 6 точность не определена (достоверность 1) [2DFAABEB], AccurateRip вернул [83508B63]
Трек 7 точность не определена (достоверность 1) [714A3B3C], AccurateRip вернул [51E3E6EC]
Трек 8 точность не определена (достоверность 1) [A493E596], AccurateRip вернул [69141BC7]
Трек 9 точность не определена (достоверность 1) [8AC8EBD6], AccurateRip вернул [90AEA7E8]

Ни один трек не прошёл проверки на точность
В вашей базе может быть иной вариант штамповки диска

Конец отчёта

_________________
Fools all of us... Basketball
avatar
kelia99

Posts : 308
Join date : 2010-09-01
Age : 55

View user profile http://in-rock-lossless.moole.ru/

Back to top Go down

View previous topic View next topic Back to top

- Similar topics

 
Permissions in this forum:
You cannot reply to topics in this forum