Kerry Livgren (ex. Kansas) - Progressive/Art-rock

View previous topic View next topic Go down

Kerry Livgren (ex. Kansas) - Progressive/Art-rock

Post by kelia99 on Sat Sep 18, 2010 12:56 am

Kerry Livgren (ex. Kansas) - Seeds of Change (1980)



Origin: USA
Genre: Progressive/Art-rock
Quality: (FLAC,cue,Log,Cover,3% Recovery record)
Size: 254 Mb

Track List:

1. Just One Way (5:45)
2. Mask Of The Great Deceiver (7:34)
3. How Can You Live (4:12)
4. Whiskey Seed (5:33)
5. To Live For The King(4:56)
6. Down To The Core (5:18)
7. Ground Zero (8:33)

Line-up Musicians:

- Kerry Livgren / guitar, drums, keyboards, vocals

Guest Musicians:
- Phil Ehart / drums
- Barriemore Barlow / drums
- Rev. Johnny Thompson / drums
- Bobby Campo / percussion, horn
- Gary Gilbert / bass guitar
- Paul Goddard / bass guitar
- Darryl Kutz / harmonica
- Robby Steinhardt / violin
- Ronnie James Dio / vocals
- Vicky Livgren / vocals
- Mylon Lefevre / vocals
- Steve Walsh / vocals
- Brad Aaron / vocals
- John Fristoe / vocals
- Joey Jelf / vocals
- Davey Moire / vocals
- David Pack / vocals
- Jeff Pollard / vocals
- Steve Venezia / vocals
- Donna Williams / vocals



Last edited by kelia99 on Sun Oct 03, 2010 4:16 am; edited 1 time in total

_________________
Fools all of us... Basketball
avatar
kelia99

Posts : 308
Join date : 2010-09-01
Age : 56

View user profile http://in-rock-lossless.moole.ru/

Back to top Go down

Re: Kerry Livgren (ex. Kansas) - Progressive/Art-rock

Post by kelia99 on Sat Sep 18, 2010 12:58 am

Kerry Livgren - Prime Mover II (1998)



Origin: USA
Genre: Crossover Prog
Quality: (FLAC,cue,Log,3% Recovery record)
Size: 439 Mb

Track List:

1. Out of Opus (1:01)
2. Portrait II (5:50)
3. Don't Pass Me By (4:49)
4. Fathers And Sons (3:58)
5. Incantos (3:54)
6. I'll Follow You (4:48)
7. Fair Exchange (6:09)
8. New Kind Of Love (4:02)
9. Brave Hearts (5:37)
10. Wandering Spirit (4:12)
11. One More Song (4:16)
12. Item 89 (4:24)
13. Children Of The Shadows (4:53)
14. T.G.B (6:08)

Total Time: 64:01

Line-up Musicians:

- Kerry Livgren / guitars, keyboards, backing vocals

Guest Musicians:
— Warren Ham / lead vocals, saxophone, blues harp
— Mike Gleason / backing vocals
— Dean Heitkamp / backing vocals
Log EAC:
Exact Audio Copy V0.99 prebeta 5 from 4. May 2009

Отчёт EAC об извлечении, выполненном 22. февраля 2010, 13:29

Kerry Livgren / Prime Mover II

Дисковод: HL-DT-STDVDRAM GSA-H66N Adapter: 3 ID: 0

Режим чтения : Достоверность
Использование точного потока : Да
Отключение кэша аудио : Да
Использование указателей C2 : Нет

Коррекция смещения при чтении : 667
Способность читать области Lead-in и Lead-out : Нет
Заполнение пропущенных сэмплов тишиной : Да
Удаление блоков с тишиной в начале и конце : Нет
При вычислениях CRC использовались нулевые сэмплы : Да
Интерфейс : Встроенный Win32-интерфейс для Win NT/2000

Выходной формат : Внутренние WAV-операции
Формат сэмплов : 44.100 Гц; 16 бит; стерео


TOC извлечённого CD

Трек | Старт | Длительность | Начальный сектор | Конечный сектор
---------------------------------------------------------------------
1 | 0:00.00 | 1:01.10 | 0 | 4584
2 | 1:01.10 | 5:50.32 | 4585 | 30866
3 | 6:51.42 | 4:49.40 | 30867 | 52581
4 | 11:41.07 | 3:58.43 | 52582 | 70474
5 | 15:39.50 | 3:54.04 | 70475 | 88028
6 | 19:33.54 | 4:48.28 | 88029 | 109656
7 | 24:22.07 | 6:09.38 | 109657 | 137369
8 | 30:31.45 | 4:02.17 | 137370 | 155536
9 | 34:33.62 | 5:37.08 | 155537 | 180819
10 | 40:10.70 | 4:12.22 | 180820 | 199741
11 | 44:23.17 | 4:16.55 | 199742 | 218996
12 | 48:39.72 | 4:24.60 | 218997 | 238856
13 | 53:04.57 | 4:53.13 | 238857 | 260844
14 | 57:57.70 | 6:08.22 | 260845 | 288466


Характеристики диапазона извлечения и сообщения об ошибках

Выбранный диапазон

Имя файла J:\Kerry Livgren - Prime Mover II (1998) [FLAC]\Kerry Livgren - Prime Mover II.wav

Пиковый уровень 98.8 %
Качество диапазона 100.0 %
CRC копии 8E3182A4
Копирование... OK

Ошибок не произошло


AccurateRip: сводка

Трек 1 точное извлечение (доверие 3) [C5536228]
Трек 2 точное извлечение (доверие 3) [59DDD994]
Трек 3 точное извлечение (доверие 3) [24707BB1]
Трек 4 точное извлечение (доверие 3) [17E05909]
Трек 5 точное извлечение (доверие 3) [05F05001]
Трек 6 точное извлечение (доверие 3) [A3DB01AD]
Трек 7 точное извлечение (доверие 3) [5DE51F2F]
Трек 8 точное извлечение (доверие 3) [94E7F522]
Трек 9 точное извлечение (доверие 3) [B0003330]
Трек 10 точное извлечение (доверие 3) [98E8BB70]
Трек 11 точное извлечение (доверие 3) [D03CBA14]
Трек 12 точное извлечение (доверие 3) [77E52DC6]
Трек 13 точное извлечение (доверие 3) [69874F54]
Трек 14 точное извлечение (доверие 3) [B40B4627]

Все треки извлечены точно

Конец отчёта


Last edited by kelia99 on Sun Oct 03, 2010 4:17 am; edited 1 time in total

_________________
Fools all of us... Basketball
avatar
kelia99

Posts : 308
Join date : 2010-09-01
Age : 56

View user profile http://in-rock-lossless.moole.ru/

Back to top Go down

Re: Kerry Livgren (ex. Kansas) - Progressive/Art-rock

Post by kelia99 on Sat Sep 18, 2010 1:01 am

Kerry Livgren(ex.Kansas)-Collector's Sedition Volume 1 (2000)



Origin: USA
Genre: Crossover Prog
Quality: (FLAC,cue,Log,3% Recovery record)
Size: 506 Mb

Track List:

1. Am Juengsten Tage (2:28)
2. On the Air (4:44)
3. The Sentinel (7:33)
4. The Navigator (5:11)
5. No More Time For Love (4:40)
6. Song Du Jour (5:39)
7. Red Money (4:32)
8. Handsight (6:13)
9. The Man With An Iron Heart (5:11)
10. As It Should Be (4:56)
11. At Every Turn (3:26)
12. Safe Alone (4:52)
13. Cold Grey Morning (4:45)
14. The Dragon (5:42)

Total Time: 71:52

Line-up Musicians:

- Kerry Livgren / guitars, keyboards

Guest Musicians:

- Yetsper Danteetsper / drums, percussion
- Jake Livgren / vocals
- Kreg Hoover / vocals
- Sam Billen / vocals
- Don Billen / vocals
- Darren Rogers / vocals
- Jason Beddoe / vocals
- Jessica Livgren / background vocals
- Katy Livgren / background vocals



Last edited by kelia99 on Sun Oct 03, 2010 4:17 am; edited 1 time in total

_________________
Fools all of us... Basketball
avatar
kelia99

Posts : 308
Join date : 2010-09-01
Age : 56

View user profile http://in-rock-lossless.moole.ru/

Back to top Go down

Re: Kerry Livgren (ex. Kansas) - Progressive/Art-rock

Post by kelia99 on Sat Sep 18, 2010 1:02 am

Kerry Livgren - Reconstructions Reconstructed (2006)



Studio Album, released in 2006

Origin: USA
Genre: Crossover Prog
Quality: (FLAC,cue,Log,Cover,3% Recovery record)
Size: 408 Mb

Track List:

1. One Golden Thread
2. Walking the Wire
3. We Draw the Line
4. No Standing
5. All in Time
6. Exiles
7. Life of Crime
8. You are the Distance
9. All Fall Down
10. Highway to the Heart
11. Free Fire Zone
12. Bright Star

Total Time: 53:06

Line-up Musicians:

-Kerry Livgren / guitars,keyboards,bass and percussion
-Michael Gleason / lead vocals and percussion
-Dennis Holt / percussion
-Dave Hope / drums
Log EAC:
Exact Audio Copy V0.99 prebeta 5 from 4. May 2009

Отчёт EAC об извлечении, выполненном 24. февраля 2010, 19:47

Livgren, Kerry / Reconstructions (Reconstructed)

Дисковод: HL-DT-STDVDRAM GSA-H66N Adapter: 3 ID: 0

Режим чтения : Достоверность
Использование точного потока : Да
Отключение кэша аудио : Да
Использование указателей C2 : Нет

Коррекция смещения при чтении : 667
Способность читать области Lead-in и Lead-out : Нет
Заполнение пропущенных сэмплов тишиной : Да
Удаление блоков с тишиной в начале и конце : Нет
При вычислениях CRC использовались нулевые сэмплы : Да
Интерфейс : Встроенный Win32-интерфейс для Win NT/2000

Выходной формат : Внутренние WAV-операции
Формат сэмплов : 44.100 Гц; 16 бит; стерео


TOC извлечённого CD

Трек | Старт | Длительность | Начальный сектор | Конечный сектор
---------------------------------------------------------------------
1 | 0:00.00 | 5:10.52 | 0 | 23301
2 | 5:10.52 | 3:49.23 | 23302 | 40499
3 | 9:00.00 | 3:49.30 | 40500 | 57704
4 | 12:49.30 | 4:04.00 | 57705 | 76004
5 | 16:53.30 | 4:00.16 | 76005 | 94020
6 | 20:53.46 | 4:21.60 | 94021 | 113655
7 | 25:15.31 | 4:26.58 | 113656 | 133663
8 | 29:42.14 | 4:12.10 | 133664 | 152573
9 | 33:54.24 | 4:53.27 | 152574 | 174575
10 | 38:47.51 | 3:52.04 | 174576 | 191979
11 | 42:39.55 | 4:43.52 | 191980 | 213256
12 | 47:23.32 | 5:42.65 | 213257 | 238971


Характеристики диапазона извлечения и сообщения об ошибках

Выбранный диапазон

Имя файла J:\Kerry Livgren - Reconstructions Reconstructed (2006)\Livgren, Kerry - Reconstructions (Reconstructed).wav

Пиковый уровень 99.8 %
Качество диапазона 100.0 %
CRC копии CEE94D52
Копирование... OK

Ошибок не произошло


AccurateRip: сводка

Трек 1 точное извлечение (доверие 2) [EBAEB3EA]
Трек 2 точное извлечение (доверие 2) [DBC525DD]
Трек 3 точное извлечение (доверие 2) [625F69BC]
Трек 4 точное извлечение (доверие 2) [96A49CD1]
Трек 5 точное извлечение (доверие 2) [335037E3]
Трек 6 точное извлечение (доверие 2) [6F225FDA]
Трек 7 точное извлечение (доверие 2) [03E828DA]
Трек 8 точное извлечение (доверие 2) [5A67EA08]
Трек 9 точное извлечение (доверие 2) [BA209DB9]
Трек 10 точное извлечение (доверие 2) [712155CE]
Трек 11 точное извлечение (доверие 2) [2432C212]
Трек 12 точное извлечение (доверие 2) [AF51E4CA]

Все треки извлечены точно

Конец отчёта

_________________
Fools all of us... Basketball
avatar
kelia99

Posts : 308
Join date : 2010-09-01
Age : 56

View user profile http://in-rock-lossless.moole.ru/

Back to top Go down

Re: Kerry Livgren (ex. Kansas) - Progressive/Art-rock

Post by Sponsored content


Sponsored content


Back to top Go down

View previous topic View next topic Back to top

- Similar topics

 
Permissions in this forum:
You cannot reply to topics in this forum