Halloween(France) - Laz (1989)

View previous topic View next topic Go down

Halloween(France) - Laz (1989)

Post by kelia99 on Fri Sep 17, 2010 11:42 pm

Halloween(France) - Laz (1989)



The French group HALLOWEEN was one of the first new progressive rock groups to emerge from the late 80's. Heavy Prog band with strong influences from the 70's classic bands in general. Very orchestrated sound with a nice violin giving the final touch. "Part One" in 1988, a dark and mysterious symphonic sound with H.P. Lovecraft (the author) influence. "Merlin" is a superb third production from this French band. Vocals are in both English and French.

Origin: France
Genre: Symphonic Prog
Quality: (FLAC,cue,Log,Front,3% Recovery record)
Size: 342 Mb
Source: My CD-R collection

Track List:

1. The Wood (6:48)
2. Waltz (5:49)
3. Just for You (4:43)
4. Yule Horror (6:38)
5. Iron Mickey (6:31)
6. Suburb (4:47)
7. Blue Nightmare (6:42)
8. Laz (9:42)

Total Time: 52:06

Line-up Musicians:

- Gilles Coppin / synthesizers, vocals, backing vocals
- Jean-Philippe Brun / violin, guitar, vocals
- Philippe Di Faostino / drums, percussion
- Yann Honoré / bass

Log EAC:
Exact Audio Copy V0.99 prebeta 5 from 4. May 2009

Отчёт EAC об извлечении, выполненном 20. июня 2010, 1:36

Halloween / Laz

Дисковод: HL-DT-STDVDRAM GSA-H66N Adapter: 3 ID: 0

Режим чтения : Достоверность
Использование точного потока : Да
Отключение кэша аудио : Да
Использование указателей C2 : Нет

Коррекция смещения при чтении : 667
Способность читать области Lead-in и Lead-out : Нет
Заполнение пропущенных сэмплов тишиной : Да
Удаление блоков с тишиной в начале и конце : Нет
При вычислениях CRC использовались нулевые сэмплы : Да
Интерфейс : Встроенный Win32-интерфейс для Win NT/2000

Выходной формат : Внутренние WAV-операции
Формат сэмплов : 44.100 Гц; 16 бит; стерео


TOC извлечённого CD

Трек | Старт | Длительность | Начальный сектор | Конечный сектор
---------------------------------------------------------------------
1 | 0:00.42 | 6:33.35 | 42 | 29551
2 | 6:34.02 | 5:54.08 | 29552 | 56109
3 | 12:28.10 | 4:48.12 | 56110 | 77721
4 | 17:16.22 | 6:43.00 | 77722 | 107946
5 | 23:59.22 | 6:37.10 | 107947 | 137731
6 | 30:36.32 | 4:52.40 | 137732 | 159671
7 | 35:28.72 | 6:49.45 | 159672 | 190391
8 | 42:18.42 | 9:49.00 | 190392 | 234566


Характеристики диапазона извлечения и сообщения об ошибках

Выбранный диапазон

Имя файла J:\Halloween-Laz (1989)\Halloween - Laz.wav

Пиковый уровень 100.0 %
Качество диапазона 99.9 %
CRC копии 08975716
Копирование... OK

Ошибок не произошло


AccurateRip: сводка

Трек 1 точность не определена (достоверность 1) [C1E44188], AccurateRip вернул [64185681]
Трек 2 точность не определена (достоверность 1) [49E55ED0], AccurateRip вернул [0B3E1BEA]
Трек 3 точность не определена (достоверность 1) [EEE07068], AccurateRip вернул [4FE8479A]
Трек 4 точность не определена (достоверность 1) [B57252A4], AccurateRip вернул [42D12A05]
Трек 5 точность не определена (достоверность 1) [05053C3D], AccurateRip вернул [49B7FCEF]
Трек 6 точность не определена (достоверность 1) [B9C3D23D], AccurateRip вернул [C1EA9957]
Трек 7 точность не определена (достоверность 1) [740927CF], AccurateRip вернул [7CA5CB96]
Трек 8 точность не определена (достоверность 1) [7253238A], AccurateRip вернул [60F7A816]

Ни один трек не прошёл проверки на точность
В вашей базе может быть иной вариант штамповки диска

Конец отчёта

_________________
Fools all of us... Basketball
avatar
kelia99

Posts : 308
Join date : 2010-09-01
Age : 55

View user profile http://in-rock-lossless.moole.ru/

Back to top Go down

View previous topic View next topic Back to top

- Similar topics

 
Permissions in this forum:
You cannot reply to topics in this forum