Blindside Blues Band(USA) - Hard Rock / Blues Rock

View previous topic View next topic Go down

Blindside Blues Band(USA) - Hard Rock / Blues Rock

Post by kelia99 on Fri Sep 17, 2010 11:36 pm

Blindside Blues Band - Blindsided (1994)



Origin: USA
Genre: Hard Rock / Blues Rock
Quality: (FLAC,cue,Log,Cover,3% Recovery record)
Size: 365 Mb

Track List:

1. Play the Blues
2. Borderline Blues
3. Talkin' 'Bout My Baby
4. Truth Never Lies
5. Climb the Sky
6. Higher Ground
7. Long Hard Road
8. Whole Lotta Nothin'
9. Guilty
10. Catchin' Z's

Total Time: 49:09



Line-up Musicians:

-Mike Onesko / guitars,vocals
-Scott Johnson / guitar
-Jeff Martin / drums
-Greg Chaisson / bass guitar
Log EAC:
Exact Audio Copy V0.99 prebeta 5 from 4. May 2009

Отчёт EAC об извлечении, выполненном 23. мая 2010, 11:48

Blindside Blues Band / Blindsided

Дисковод: HL-DT-STDVDRAM GSA-H66N Adapter: 3 ID: 0

Режим чтения : Достоверность
Использование точного потока : Да
Отключение кэша аудио : Да
Использование указателей C2 : Нет

Коррекция смещения при чтении : 667
Способность читать области Lead-in и Lead-out : Нет
Заполнение пропущенных сэмплов тишиной : Да
Удаление блоков с тишиной в начале и конце : Нет
При вычислениях CRC использовались нулевые сэмплы : Да
Интерфейс : Встроенный Win32-интерфейс для Win NT/2000

Выходной формат : Внутренние WAV-операции
Формат сэмплов : 44.100 Гц; 16 бит; стерео


TOC извлечённого CD

Трек | Старт | Длительность | Начальный сектор | Конечный сектор
---------------------------------------------------------------------
1 | 0:00.00 | 5:06.37 | 0 | 22986
2 | 5:06.37 | 3:40.45 | 22987 | 39531
3 | 8:47.07 | 4:36.25 | 39532 | 60256
4 | 13:23.32 | 7:01.18 | 60257 | 91849
5 | 20:24.50 | 4:33.67 | 91850 | 112391
6 | 24:58.42 | 4:21.55 | 112392 | 132021
7 | 29:20.22 | 3:33.55 | 132022 | 148051
8 | 32:54.02 | 3:44.00 | 148052 | 164851
9 | 36:38.02 | 7:34.25 | 164852 | 198926
10 | 44:12.27 | 4:57.13 | 198927 | 221214


Характеристики диапазона извлечения и сообщения об ошибках

Выбранный диапазон

Имя файла J:\Blindside Blues Band - Blindsided (1994)\Blindside Blues Band - Blindsided.wav

Пиковый уровень 87.8 %
Качество диапазона 100.0 %
CRC копии 8C8BA251
Копирование... OK

Ошибок не произошло


AccurateRip: сводка

Трек 1 нет в базе данных
Трек 2 точное извлечение (доверие 2) [FA2F1FDF]
Трек 3 точное извлечение (доверие 2) [14FA60DE]
Трек 4 точное извлечение (доверие 2) [036FC77D]
Трек 5 точное извлечение (доверие 2) [0D2B7D15]
Трек 6 точное извлечение (доверие 2) [56871972]
Трек 7 точное извлечение (доверие 2) [B2D3A6B9]
Трек 8 точное извлечение (доверие 2) [61031453]
Трек 9 точное извлечение (доверие 2) [FF9AA34D]
Трек 10 точное извлечение (доверие 2) [45B3F679]

9 трек(и) скопированы точно
1 трек(и) не содержатся в базе AccurateRip

Некоторые треки не прошли проверку на точность

Конец отчёта


Last edited by kelia99 on Sun Oct 03, 2010 3:27 am; edited 1 time in total

_________________
Fools all of us... Basketball
avatar
kelia99

Posts : 308
Join date : 2010-09-01
Age : 56

View user profile http://in-rock-lossless.moole.ru/

Back to top Go down

Re: Blindside Blues Band(USA) - Hard Rock / Blues Rock

Post by kelia99 on Fri Sep 17, 2010 11:37 pm

Blindside Blues Band - BlindSide Blues Band(1993)



Origin: USA
Genre: Hard Rock / Blues Rock
Quality: (FLAC,cue,Log,Cover,3% Recovery record)
Size: 325 Mb

Track List:

1. Bad Premonition (3:51)
2. Renegade (4:18)
3. Hit The Highway (4:43)
4. Blues In My Soul (4:45)
5. Flying (3:21)
6. Back Against The Wall (3:50)
7. Powerful Thing (4:00)
8. Burning Cities (3:54)
9. Early Grave (4:16)
10. Winner Takes It All (4:10)

Total Time: 41:13

Log EAC:
Exact Audio Copy V0.99 prebeta 5 from 4. May 2009

EAC extraction logfile from 7. September 2010, 20:00

Blindside Blues Band / BlindSide Blues Band

Used drive : HL-DT-STDVDRAM GSA-H66N Adapter: 3 ID: 0

Read mode : Secure
Utilize accurate stream : Yes
Defeat audio cache : Yes
Make use of C2 pointers : No

Read offset correction : 667
Overread into Lead-In and Lead-Out : No
Fill up missing offset samples with silence : Yes
Delete leading and trailing silent blocks : No
Null samples used in CRC calculations : Yes
Used interface : Native Win32 interface for Win NT & 2000

Used output format : Internal WAV Routines
Sample format : 44.100 Hz; 16 Bit; Stereo


TOC of the extracted CD

Track | Start | Length | Start sector | End sector
---------------------------------------------------------
1 | 0:00.00 | 3:51.08 | 0 | 17332
2 | 3:51.08 | 4:18.55 | 17333 | 36737
3 | 8:09.63 | 4:43.25 | 36738 | 57987
4 | 12:53.13 | 4:45.65 | 57988 | 79427
5 | 17:39.03 | 3:22.25 | 79428 | 94602
6 | 21:01.28 | 3:50.52 | 94603 | 111904
7 | 24:52.05 | 4:00.25 | 111905 | 129929
8 | 28:52.30 | 3:54.60 | 129930 | 147539
9 | 32:47.15 | 4:15.63 | 147540 | 166727
10 | 37:03.03 | 4:10.17 | 166728 | 185494


Range status and errors

Selected range

Filename E:\Blindside Blues Band - BlindSide Blues Band(1993)\Blindside Blues Band - BlindSide Blues Band.wav

Peak level 100.0 %
Range quality 100.0 %
Copy CRC FC027641
Copy OK

No errors occurred


AccurateRip summary

Track 1 accurately ripped (confidence 1) [4E51B74E]
Track 2 accurately ripped (confidence 1) [6414E161]
Track 3 accurately ripped (confidence 1) [FE161B42]
Track 4 accurately ripped (confidence 1) [68E6315E]
Track 5 accurately ripped (confidence 1) [CA9C0096]
Track 6 accurately ripped (confidence 1) [01171406]
Track 7 accurately ripped (confidence 1) [88E58FFE]
Track 8 accurately ripped (confidence 1) [F29EB3E9]
Track 9 accurately ripped (confidence 1) [2D2AF357]
Track 10 accurately ripped (confidence 1) [8D84BB46]

All tracks accurately ripped

End of status report


Last edited by kelia99 on Sun Oct 03, 2010 3:27 am; edited 1 time in total

_________________
Fools all of us... Basketball
avatar
kelia99

Posts : 308
Join date : 2010-09-01
Age : 56

View user profile http://in-rock-lossless.moole.ru/

Back to top Go down

Re: Blindside Blues Band(USA) - Hard Rock / Blues Rock

Post by kelia99 on Fri Sep 17, 2010 11:38 pm

Blindside Blues Band - Messenger Of The Blues (1995)



Origin: USA
Genre: Hard Rock / Blues Rock
Quality: (FLAC,cue,Log,Cover,3% Recovery record)
Size: 414 Mb

Track List:

01. Let The Blues Do The Healing
02. True Blues
03. Crying Shame
04. Many Lessons
05. Mystery Rider
06. No Mercy
07. Lonely Road
08. No One To Trust
09. Messenger Of The Blues
10. I'm Trying



Line-up Musicians:

-Michael Onesko / vocals, guitar)
-Scott Johnson / electric & slide guitars)
-Greg Chaisson / bass)
-Jeff Martin / drums)

Additional personnel:

-Mike Varney / guitar)
-Kier Staeheli / bass)
Log EAC:
Exact Audio Copy V0.99 prebeta 5 from 4. May 2009

Отчёт EAC об извлечении, выполненном 23. мая 2010, 12:20

Blindside Blues Band / Messenger Of The Blues

Дисковод: HL-DT-STDVDRAM GSA-H66N Adapter: 3 ID: 0

Режим чтения : Достоверность
Использование точного потока : Да
Отключение кэша аудио : Да
Использование указателей C2 : Нет

Коррекция смещения при чтении : 667
Способность читать области Lead-in и Lead-out : Нет
Заполнение пропущенных сэмплов тишиной : Да
Удаление блоков с тишиной в начале и конце : Нет
При вычислениях CRC использовались нулевые сэмплы : Да
Интерфейс : Встроенный Win32-интерфейс для Win NT/2000

Выходной формат : Внутренние WAV-операции
Формат сэмплов : 44.100 Гц; 16 бит; стерео


TOC извлечённого CD

Трек | Старт | Длительность | Начальный сектор | Конечный сектор
---------------------------------------------------------------------
1 | 0:00.00 | 5:33.30 | 0 | 25004
2 | 5:33.30 | 4:15.12 | 25005 | 44141
3 | 9:48.42 | 7:37.15 | 44142 | 78431
4 | 17:25.57 | 7:13.35 | 78432 | 110941
5 | 24:39.17 | 3:54.48 | 110942 | 128539
6 | 28:33.65 | 4:00.27 | 128540 | 146566
7 | 32:34.17 | 3:45.30 | 146567 | 163471
8 | 36:19.47 | 3:52.30 | 163472 | 180901
9 | 40:12.02 | 4:44.68 | 180902 | 202269
10 | 44:56.70 | 13:19.15 | 202270 | 262209


Характеристики диапазона извлечения и сообщения об ошибках

Выбранный диапазон

Имя файла J:\Blindside Blues Band - Messenger Of The Blues (1995)\Blindside Blues Band - Messenger Of The Blues.wav

Пиковый уровень 95.7 %
Качество диапазона 99.9 %
CRC копии C4240959
Копирование... OK

Ошибок не произошло


AccurateRip: сводка

Трек 1 нет в базе данных
Трек 2 нет в базе данных
Трек 3 нет в базе данных
Трек 4 нет в базе данных
Трек 5 нет в базе данных
Трек 6 нет в базе данных
Трек 7 нет в базе данных
Трек 8 нет в базе данных
Трек 9 нет в базе данных
Трек 10 нет в базе данных

Ни одного трека нет в базе AccurateRip

Конец отчёта


Last edited by kelia99 on Sun Oct 03, 2010 3:28 am; edited 1 time in total

_________________
Fools all of us... Basketball
avatar
kelia99

Posts : 308
Join date : 2010-09-01
Age : 56

View user profile http://in-rock-lossless.moole.ru/

Back to top Go down

Re: Blindside Blues Band(USA) - Hard Rock / Blues Rock

Post by kelia99 on Fri Sep 17, 2010 11:38 pm

Blindside Blues Band - Smokehouse Sessions(2009)



Origin: USA
Genre: Hard Rock / Blues Rock
Quality: (FLAC,cue,Log,Cover,3% Recovery record)
Size: 428 Mb

Track List:

01. Little Red Rooster
02. Rock Me Baby
03. Dirty Double Dealer
04. Sweet Little Angel
05. Ramblin' On My Mind
06. Hoochie Coochie Man
07. Same Old Situation
08. Who Knows Jam
09. Crossroads 69
10. Albatross



Line-up Musicians:

-Mike Onesko / guitar, vocals
-Bill Gressock / guitar, keyboards
-Kier Staehill / bass
-Emery Ceo / drums
-John Leanord / rhythm guitar (on 3)

Log EAC:
Exact Audio Copy V0.99 prebeta 5 from 4. May 2009

Отчёт EAC об извлечении, выполненном 25. мая 2010, 1:06

Blindside Blues Band / Smokehouse Sessions

Дисковод: HL-DT-STDVDRAM GSA-H66N Adapter: 3 ID: 0

Режим чтения : Достоверность
Использование точного потока : Да
Отключение кэша аудио : Да
Использование указателей C2 : Нет

Коррекция смещения при чтении : 667
Способность читать области Lead-in и Lead-out : Нет
Заполнение пропущенных сэмплов тишиной : Да
Удаление блоков с тишиной в начале и конце : Нет
При вычислениях CRC использовались нулевые сэмплы : Да
Интерфейс : Встроенный Win32-интерфейс для Win NT/2000

Выходной формат : Внутренние WAV-операции
Формат сэмплов : 44.100 Гц; 16 бит; стерео


TOC извлечённого CD

Трек | Старт | Длительность | Начальный сектор | Конечный сектор
---------------------------------------------------------------------
1 | 0:00.00 | 7:40.51 | 0 | 34550
2 | 7:40.51 | 4:15.45 | 34551 | 53720
3 | 11:56.21 | 4:16.53 | 53721 | 72973
4 | 16:12.74 | 6:23.44 | 72974 | 101742
5 | 22:36.43 | 6:45.45 | 101743 | 132162
6 | 29:22.13 | 10:28.52 | 132163 | 179314
7 | 39:50.65 | 4:57.44 | 179315 | 201633
8 | 44:48.34 | 7:56.49 | 201634 | 237382
9 | 52:45.08 | 8:08.48 | 237383 | 274030
10 | 60:53.56 | 4:04.41 | 274031 | 292371


Характеристики диапазона извлечения и сообщения об ошибках

Выбранный диапазон

Имя файла J:\Blindside Blues Band - Smokehouse Sessions(2009)\Blindside Blues Band - Smokehouse Sessions.wav

Пиковый уровень 100.0 %
Качество диапазона 100.0 %
CRC копии 430F9F05
Копирование... OK

Ошибок не произошло


AccurateRip: сводка

Трек 1 нет в базе данных
Трек 2 нет в базе данных
Трек 3 нет в базе данных
Трек 4 нет в базе данных
Трек 5 нет в базе данных
Трек 6 нет в базе данных
Трек 7 нет в базе данных
Трек 8 нет в базе данных
Трек 9 нет в базе данных
Трек 10 нет в базе данных

Ни одного трека нет в базе AccurateRip

Конец отчёта



Last edited by kelia99 on Sun Oct 03, 2010 3:28 am; edited 1 time in total

_________________
Fools all of us... Basketball
avatar
kelia99

Posts : 308
Join date : 2010-09-01
Age : 56

View user profile http://in-rock-lossless.moole.ru/

Back to top Go down

Re: Blindside Blues Band(USA) - Hard Rock / Blues Rock

Post by kelia99 on Fri Sep 17, 2010 11:39 pm

Blindside Blues Band - Raised on Rock(2010)



...в духе концертных выступлений Led Zeppelin.

Origin: USA
Genre: Hard Rock / Blues Rock
Quality: (FLAC,cue,Log,Cover,3% Recovery record)
Size: 576 Mb

Track List:

01. Raised On Rock
02. Night Train
03. Folsom Prison Blues
04. Wave On
05. Child Of The Sun
06. War In The Streets
07. Take You Down
08. Bury The Axe
09.World On Fire
10. Love Is Worth The Blues
11. Backstreet Rider
12. Born With The Blues

Total Time: 73:55



Line-up Musicians:

-Mike Onesko / guitars,vocals
-Scott Johnson / guitar
-Emery Ceo / drums
-Kier Staeheli / bass guitar

Plus:
-Angelica Onesko / background vocals on "Child of the Sun"
Log EAC:
Exact Audio Copy V0.99 prebeta 5 from 4. May 2009

Отчёт EAC об извлечении, выполненном 21. мая 2010, 11:48

Blindside Blues Band / Raised on Rock

Дисковод: HL-DT-STDVDRAM GSA-H66N Adapter: 3 ID: 0

Режим чтения : Достоверность
Использование точного потока : Да
Отключение кэша аудио : Да
Использование указателей C2 : Нет

Коррекция смещения при чтении : 667
Способность читать области Lead-in и Lead-out : Нет
Заполнение пропущенных сэмплов тишиной : Да
Удаление блоков с тишиной в начале и конце : Нет
При вычислениях CRC использовались нулевые сэмплы : Да
Интерфейс : Встроенный Win32-интерфейс для Win NT/2000

Выходной формат : Внутренние WAV-операции
Формат сэмплов : 44.100 Гц; 16 бит; стерео


TOC извлечённого CD

Трек | Старт | Длительность | Начальный сектор | Конечный сектор
---------------------------------------------------------------------
1 | 0:00.00 | 5:33.04 | 0 | 24978
2 | 5:33.04 | 4:15.28 | 24979 | 44131
3 | 9:48.32 | 5:11.07 | 44132 | 67463
4 | 14:59.39 | 5:07.34 | 67464 | 90522
5 | 20:06.73 | 6:05.27 | 90523 | 117924
6 | 26:12.25 | 3:29.54 | 117925 | 133653
7 | 29:42.04 | 4:16.71 | 133654 | 152924
8 | 33:59.00 | 5:42.40 | 152925 | 178614
9 | 39:41.40 | 4:40.23 | 178615 | 199637
10 | 44:21.63 | 6:03.16 | 199638 | 226878
11 | 50:25.04 | 6:08.44 | 226879 | 254522
12 | 56:33.48 | 17:21.55 | 254523 | 332652


Характеристики диапазона извлечения и сообщения об ошибках

Выбранный диапазон

Имя файла J:\BlBlBand-2010\Blindside Blues Band - Raised on Rock(2010)\Blindside Blues Band - Raised on Rock.wav

Пиковый уровень 99.9 %
Качество диапазона 100.0 %
CRC копии 342F5721
Копирование... OK

Ошибок не произошло


AccurateRip: сводка

Трек 1 точность не определена (достоверность 1) [3D028B55], AccurateRip вернул [7819FA3A]
Трек 2 точность не определена (достоверность 1) [EF6B6E31], AccurateRip вернул [CC83A86F]
Трек 3 точность не определена (достоверность 1) [E64CCF6A], AccurateRip вернул [3EA1748A]
Трек 4 точность не определена (достоверность 1) [8E6B907D], AccurateRip вернул [12FC2B85]
Трек 5 точность не определена (достоверность 1) [44BCBC76], AccurateRip вернул [93992DFC]
Трек 6 точность не определена (достоверность 1) [6B4E71CE], AccurateRip вернул [5396E824]
Трек 7 точность не определена (достоверность 1) [7F7C336A], AccurateRip вернул [E0CA5E42]
Трек 8 точность не определена (достоверность 1) [89000A61], AccurateRip вернул [CE0D9025]
Трек 9 точность не определена (достоверность 1) [40A81043], AccurateRip вернул [F536991A]
Трек 10 точность не определена (достоверность 1) [D562E6C1], AccurateRip вернул [0EF6901A]
Трек 11 точность не определена (достоверность 1) [46307877], AccurateRip вернул [DB7AD90F]
Трек 12 точность не определена (достоверность 1) [9DBA06B5], AccurateRip вернул [45BE5297]

Ни один трек не прошёл проверки на точность
В вашей базе может быть иной вариант штамповки диска

Конец отчёта


Last edited by kelia99 on Sun Oct 03, 2010 3:29 am; edited 1 time in total

_________________
Fools all of us... Basketball
avatar
kelia99

Posts : 308
Join date : 2010-09-01
Age : 56

View user profile http://in-rock-lossless.moole.ru/

Back to top Go down

Re: Blindside Blues Band(USA) - Hard Rock / Blues Rock

Post by kelia99 on Fri Sep 17, 2010 11:40 pm

Mike Onesko's - Blindside Blues Band - To The Station(1996)



Origin: USA
Genre: Hard Rock / Blues Rock
Quality: (FLAC,cue,Log,Cover,3% Recovery record)
Size: 368 Mb

Track List:

01.To The Station
02.I'm Not Your ManAll I Need
03.Take His Keys
04.Whirlwind
05.Natural Thang
06.Worn Out Shoe
07.Fade Away
08.Get Outta My Way
09.Hurting Me
10.All I Need

Total Time:56:27



Line-up Musicians:

-Mike Onesko / guitars & vocals
-Aynsley Dunbar / drums
-James Lomenzo / bass
-Mike Varney / guitars
-Parris bertolucci / organ

Log EAC:
Exact Audio Copy V0.99 prebeta 5 from 4. May 2009

Отчёт EAC об извлечении, выполненном 25. мая 2010, 10:34

Blindside Blues Band / To The Station

Дисковод: HL-DT-STDVDRAM GSA-H66N Adapter: 3 ID: 0

Режим чтения : Достоверность
Использование точного потока : Да
Отключение кэша аудио : Да
Использование указателей C2 : Нет

Коррекция смещения при чтении : 667
Способность читать области Lead-in и Lead-out : Нет
Заполнение пропущенных сэмплов тишиной : Да
Удаление блоков с тишиной в начале и конце : Нет
При вычислениях CRC использовались нулевые сэмплы : Да
Интерфейс : Встроенный Win32-интерфейс для Win NT/2000

Выходной формат : Внутренние WAV-операции
Формат сэмплов : 44.100 Гц; 16 бит; стерео


TOC извлечённого CD

Трек | Старт | Длительность | Начальный сектор | Конечный сектор
---------------------------------------------------------------------
1 | 0:00.00 | 5:44.70 | 0 | 25869
2 | 5:44.70 | 6:32.20 | 25870 | 55289
3 | 12:17.15 | 3:03.49 | 55290 | 69063
4 | 15:20.64 | 5:25.61 | 69064 | 93499
5 | 20:46.50 | 8:08.10 | 93500 | 130109
6 | 28:54.60 | 5:27.71 | 130110 | 154705
7 | 34:22.56 | 5:16.26 | 154706 | 178431
8 | 39:39.07 | 4:55.60 | 178432 | 200616
9 | 44:34.67 | 7:42.68 | 200617 | 235334
10 | 52:17.60 | 4:10.08 | 235335 | 254092


Характеристики диапазона извлечения и сообщения об ошибках

Выбранный диапазон

Имя файла J:\Новая папка\Blindside Blues Band - To The Station.wav

Пиковый уровень 100.0 %
Качество диапазона 100.0 %
CRC копии 9A477A7E
Копирование... OK

Ошибок не произошло


AccurateRip: сводка

Трек 1 точность не определена (достоверность 1) [8ADC7618], AccurateRip вернул [D2C1F2FC]
Трек 2 нет в базе данных
Трек 3 нет в базе данных
Трек 4 нет в базе данных
Трек 5 нет в базе данных
Трек 6 нет в базе данных
Трек 7 нет в базе данных
Трек 8 нет в базе данных
Трек 9 нет в базе данных
Трек 10 нет в базе данных

1 трек(и) не удалось проверить на точность
9 трек(и) не содержатся в базе AccurateRip

Ни один трек не прошёл проверки на точность
В вашей базе может быть иной вариант штамповки диска

Конец отчёта

_________________
Fools all of us... Basketball
avatar
kelia99

Posts : 308
Join date : 2010-09-01
Age : 56

View user profile http://in-rock-lossless.moole.ru/

Back to top Go down

Re: Blindside Blues Band(USA) - Hard Rock / Blues Rock

Post by Sponsored content


Sponsored content


Back to top Go down

View previous topic View next topic Back to top

- Similar topics

 
Permissions in this forum:
You cannot reply to topics in this forum