Pink Floyd - The Wall (The Soundtrack Of The Motion Picture) 1997[2CD]

View previous topic View next topic Go down

Pink Floyd - The Wall (The Soundtrack Of The Motion Picture) 1997[2CD]

Post by kelia99 on Fri Sep 17, 2010 6:09 pm

Pink Floyd - The Wall (The Soundtrack Of The Motion Picture) 1997[2CD]



Year: 1997(2CD)
Origin: United Kingdom
Genre: Psychedelic/Space Rock
Quality: (FLAC,cue,Log, cover,3% Recovery record)
Size: 811 mb

CD 1:

01. a/ Christmas Song For Children (Part 1)
b/ Theme 'A'
c/ Christmas Song For Children (Part 2) (5:39)
02. In The Flesh? (4:19)
03. The Thin Ice (2:45)
04. Another Brick In The Wall (Part 1) (4:09)
05. Theme 'A' (2:10)
06. Goodbye Blue Sky (3:31)
07. a/ The Happiest Days Of Our Lives (Part 1)
b/ Film Noise
c/ The Happiest Days Of Our Lives (Part 2) & Another Brick In The Wall (Part 2) (5:57)
08. Mother (a/ & b/) (7:30)
09. Empty Spaces (Part 1) (4:11)
10. Empty Spaces (Part 2) (4:14)
11. a/Young Lust
b/One Of My Turns (3:49)
12. Don't Leave Me Now (3:08)
13. Another Brick In The Wall (Part 3) (1:23)
14. Goodbye Cruel World (1:19)
15. Is There Anybody Out There? (3:30)
16. Nobody Home (5:32)
17. a/ Vera
b/ Bring The Boys Back Home (3:04)
18. Comfortably Numb (6:21)

Total Time: 72:30

CD 2:

01. In The Flesh? (3:54)
02. Run Like Hell (2:26)
03. Waiting For The Warms (a/ - c/) (2:26)
04. Stop (2:39)
05. The Trail (5:57)
06. Film Noise (Destroing Of The Wall) (0:56)
07. Outside The Wall (4:18)

BONUS: (The Rehearsals At The Paramount Studios (Febr. 1, 1980)

08. The Happiest Days Of Our Lives (1:29)
09. Another Brick In The Wall (Part 2) (6:30)
10. Mother (7:19)
11. Goodbye Blue Sky (4:32)
12. Empty Spaces (1:25)
13. What Shall We Do Now? (1:49)
14. Young Lust (5:03)
15. One Of My Turns (3:31)
16. Sort Yourself Out James (1:54)
17. Another Brick In The Wall (Part 3) (2:47)
18. Goodbye Cruel World (3:01)
19. Hey You (7:06)
20. Don't Start The Tapes James (1:17)
21. Is There Anybody Out There? (3:39)

Total Time: 73:58



Line-up / Musicians :

- David Gilmour / guitar, vocals
- Nick Mason / drums
- Roger Waters / bass, vocals
- Richard Wright / organ, piano, vocal

With: (for track 8-21 vol2):

-Snowy White / guitar
-Andy Bown / bass
-Peter Wood / keyboards
-Willie Willson / drums

Log EAC CD1:
Exact Audio Copy V0.99 prebeta 5 from 4. May 2009

Отчёт EAC об извлечении, выполненном 9. августа 2010, 23:32

Pink Floyd / The Wall (The Soundtrack Of The Motion Picture) (CD 1)

Дисковод: HL-DT-STDVDRAM GSA-H66N Adapter: 3 ID: 0

Режим чтения : Достоверность
Использование точного потока : Да
Отключение кэша аудио : Да
Использование указателей C2 : Нет

Коррекция смещения при чтении : 667
Способность читать области Lead-in и Lead-out : Нет
Заполнение пропущенных сэмплов тишиной : Да
Удаление блоков с тишиной в начале и конце : Нет
При вычислениях CRC использовались нулевые сэмплы : Да
Интерфейс : Встроенный Win32-интерфейс для Win NT/2000

Выходной формат : Внутренние WAV-операции
Формат сэмплов : 44.100 Гц; 16 бит; стерео


TOC извлечённого CD

Трек | Старт | Длительность | Начальный сектор | Конечный сектор
---------------------------------------------------------------------
1 | 0:00.00 | 4:58.46 | 0 | 22395
2 | 4:58.46 | 3:54.43 | 22396 | 39988
3 | 8:53.14 | 3:42.58 | 39989 | 56696
4 | 12:35.72 | 3:03.62 | 56697 | 70483
5 | 15:39.59 | 3:07.12 | 70484 | 84520
6 | 18:46.71 | 2:16.48 | 84521 | 94768
7 | 21:03.44 | 6:43.53 | 94769 | 125046
8 | 27:47.22 | 7:24.19 | 125047 | 158365
9 | 35:11.41 | 4:26.15 | 158366 | 178330
10 | 39:37.56 | 3:41.54 | 178331 | 194959
11 | 43:19.35 | 4:50.67 | 194960 | 216776
12 | 48:10.27 | 3:10.48 | 216777 | 231074
13 | 51:21.00 | 1:23.12 | 231075 | 237311
14 | 52:44.12 | 0:52.21 | 237312 | 241232
15 | 53:36.33 | 2:45.11 | 241233 | 253618
16 | 56:21.44 | 4:20.33 | 253619 | 273151
17 | 60:42.02 | 5:04.39 | 273152 | 295990
18 | 65:46.41 | 6:43.71 | 295991 | 326286


Характеристики диапазона извлечения и сообщения об ошибках

Выбранный диапазон

Имя файла E:\Pink Floyd - The Wall (The Soundtrack Of The Motion Picture) (CD 1)\Pink Floyd - The Wall (The Soundtrack Of The Motion Picture) (CD 1).wav

Пиковый уровень 87.0 %
Качество диапазона 100.0 %
CRC копии 708261DA
Копирование... OK

Ошибок не произошло


AccurateRip: сводка

Трек 1 нет в базе данных
Трек 2 нет в базе данных
Трек 3 нет в базе данных
Трек 4 нет в базе данных
Трек 5 нет в базе данных
Трек 6 нет в базе данных
Трек 7 нет в базе данных
Трек 8 нет в базе данных
Трек 9 нет в базе данных
Трек 10 нет в базе данных
Трек 11 нет в базе данных
Трек 12 нет в базе данных
Трек 13 нет в базе данных
Трек 14 нет в базе данных
Трек 15 нет в базе данных
Трек 16 нет в базе данных
Трек 17 нет в базе данных
Трек 18 нет в базе данных

Ни одного трека нет в базе AccurateRip

Конец отчёта

Log EAC CD2:
Exact Audio Copy V0.99 prebeta 5 from 4. May 2009

Отчёт EAC об извлечении, выполненном 10. августа 2010, 0:07

Pink Floyd / The Wall (The Soundtrack Of The Motion Picture) (CD 2)

Дисковод: HL-DT-STDVDRAM GSA-H66N Adapter: 3 ID: 0

Режим чтения : Достоверность
Использование точного потока : Да
Отключение кэша аудио : Да
Использование указателей C2 : Нет

Коррекция смещения при чтении : 667
Способность читать области Lead-in и Lead-out : Нет
Заполнение пропущенных сэмплов тишиной : Да
Удаление блоков с тишиной в начале и конце : Нет
При вычислениях CRC использовались нулевые сэмплы : Да
Интерфейс : Встроенный Win32-интерфейс для Win NT/2000

Выходной формат : Внутренние WAV-операции
Формат сэмплов : 44.100 Гц; 16 бит; стерео


TOC извлечённого CD

Трек | Старт | Длительность | Начальный сектор | Конечный сектор
---------------------------------------------------------------------
1 | 0:00.00 | 3:53.74 | 0 | 17548
2 | 3:53.74 | 2:25.65 | 17549 | 28488
3 | 6:19.64 | 2:26.20 | 28489 | 39458
4 | 8:46.09 | 2:39.03 | 39459 | 51386
5 | 11:25.12 | 5:45.59 | 51387 | 77320
6 | 17:10.71 | 0:43.01 | 77321 | 80546
7 | 17:53.72 | 4:32.35 | 80547 | 100981
8 | 22:26.32 | 1:39.05 | 100982 | 108411
9 | 24:05.37 | 6:29.74 | 108412 | 137660
10 | 30:35.36 | 7:18.53 | 137661 | 170563
11 | 37:54.14 | 4:32.32 | 170564 | 190995
12 | 42:26.46 | 1:25.08 | 190996 | 197378
13 | 43:51.54 | 1:48.52 | 197379 | 205530
14 | 45:40.31 | 5:03.06 | 205531 | 228261
15 | 50:43.37 | 3:31.04 | 228262 | 244090
16 | 54:14.41 | 1:54.07 | 244091 | 252647
17 | 56:08.48 | 2:46.63 | 252648 | 265160
18 | 58:55.36 | 3:00.39 | 265161 | 278699
19 | 61:56.00 | 7:06.15 | 278700 | 310664
20 | 69:02.15 | 1:16.52 | 310665 | 316416
21 | 70:18.67 | 3:39.32 | 316417 | 332873


Характеристики диапазона извлечения и сообщения об ошибках

Выбранный диапазон

Имя файла E:\Pink Floyd - The Wall (The Soundtrack Of The Motion Picture) (CD 2)\The Wall (The Soundtrack Of The Motion Picture) (CD 2).wav

Пиковый уровень 87.1 %
Качество диапазона 100.0 %
CRC копии 36FCE109
Копирование... OK

Ошибок не произошло


AccurateRip: сводка

Трек 1 нет в базе данных
Трек 2 нет в базе данных
Трек 3 нет в базе данных
Трек 4 нет в базе данных
Трек 5 нет в базе данных
Трек 6 нет в базе данных
Трек 7 нет в базе данных
Трек 8 нет в базе данных
Трек 9 нет в базе данных
Трек 10 нет в базе данных
Трек 11 нет в базе данных
Трек 12 нет в базе данных
Трек 13 нет в базе данных
Трек 14 нет в базе данных
Трек 15 нет в базе данных
Трек 16 нет в базе данных
Трек 17 нет в базе данных
Трек 18 нет в базе данных
Трек 19 нет в базе данных
Трек 20 нет в базе данных
Трек 21 нет в базе данных

Ни одного трека нет в базе AccurateRip

Конец отчёта


_________________
Fools all of us... Basketball
avatar
kelia99

Posts : 308
Join date : 2010-09-01
Age : 55

View user profile http://in-rock-lossless.moole.ru/

Back to top Go down

View previous topic View next topic Back to top

- Similar topics

 
Permissions in this forum:
You cannot reply to topics in this forum