Vanden Plas(Germany) - The Seraphic Clockwork (2010)

View previous topic View next topic Go down

Vanden Plas(Germany) - The Seraphic Clockwork (2010)

Post by kelia99 on Fri Sep 17, 2010 12:31 am

Vanden Plas - The Seraphic Clockwork (2010)



Origin: Germany
Genre: Progressive Metal
Quality: (WV,cue,Log,Cover,3% Recovery record)
Size: 641 Mb
Source: torrent(Спасибо LTE (rutracker.org)

Track List:

1. Frequency
2. Holes In The Sky
3. Scar of an Angel
4. Sound of Blood
5. The Final Murder
6. Quicksilver
7. Rush of Silence
8. On My Way to Jerusalem

Total Time: 62:30



Line-up Musicians:

- Andy Kuntz / Vocals (Abydos, Amaseffer, Missa Mercuria)
- Stephan Lill / Guitar (Ian Parry, Red Circuit)
- Torsten Reichert / Bass (Odious)
- Andreas Lill / Drums (Abydos, Section A, Winterlong, Missa Mercuria)
- Gunter Werno / Keyboards
Log File:
Exact Audio Copy V0.99 prebeta 4 from 23. January 2008

EAC extraction logfile from 11. June 2010, 11:05

Vanden Plas / The Seraphic Clockwork

Used drive : TSSTcorpCDDVDW TS-L632H Adapter: 1 ID: 0

Read mode : Secure
Utilize accurate stream : Yes
Defeat audio cache : Yes
Make use of C2 pointers : No

Read offset correction : 6
Overread into Lead-In and Lead-Out : No
Fill up missing offset samples with silence : Yes
Delete leading and trailing silent blocks : No
Null samples used in CRC calculations : Yes
Used interface : Native Win32 interface for Win NT & 2000

Used output format : User Defined Encoder
Selected bitrate : 1024 kBit/s
Quality : High
Add ID3 tag : No
Command line compressor : C:\Program Files\FLAC\flac.exe
Additional command line options : -4 -T "artist=%a" -T "title=%t" -T "album=%g" -T "date=%y" -T "tracknumber=%n" -T "genre=%m" %s


TOC of the extracted CD

Track | Start | Length | Start sector | End sector
---------------------------------------------------------
1 | 0:00.00 | 6:15.56 | 0 | 28180
2 | 6:15.56 | 5:25.41 | 28181 | 52596
3 | 11:41.22 | 7:26.48 | 52597 | 86094
4 | 19:07.70 | 6:47.29 | 86095 | 116648
5 | 25:55.24 | 9:53.46 | 116649 | 161169
6 | 35:48.70 | 8:54.26 | 161170 | 201245
7 | 44:43.21 | 9:22.65 | 201246 | 243460
8 | 54:06.11 | 12:50.44 | 243461 | 301254
9 | 66:56.55 | 5:32.51 | 301255 | 326205
10 | 75:01.31 | 4:23.04 | 337606 | 357334


Range status and errors

Selected range

Filename C:\My music\Vanden Plas - (2010) The seraphic clockwork (320)\Vanden Plas - The Seraphic Clockwork.wav

Peak level 96.6 %
Range quality 100.0 %
Copy CRC 1A5D3336
Copy OK

No errors occurred


AccurateRip summary

Track 1 not present in database
Track 2 not present in database
Track 3 not present in database
Track 4 not present in database
Track 5 not present in database
Track 6 not present in database
Track 7 not present in database
Track 8 not present in database
Track 9 not present in database

None of the tracks are present in the AccurateRip database

End of status report


_________________
Fools all of us... Basketball
avatar
kelia99

Posts : 308
Join date : 2010-09-01
Age : 55

View user profile http://in-rock-lossless.moole.ru/

Back to top Go down

View previous topic View next topic Back to top

- Similar topics

 
Permissions in this forum:
You cannot reply to topics in this forum