Deep Purple - King Biscuit Flower Hour Presents-1976(2CD)live

View previous topic View next topic Go down

Deep Purple - King Biscuit Flower Hour Presents-1976(2CD)live

Post by kelia99 on Fri Sep 17, 2010 12:28 am

Deep Purple - King Biscuit Flower Hour Presents-1976(2CD)live



Отличный зальный альбом с участием Томми Болина! Здесь он в отличной форме,что с ним на концертах не так уж часто бывало...И остальные участники группы на высоте. Oсобенно хочеться выделить Пейса.

Origin: UK Exclamation
Genre: Hard/Rock
Quality: (FLAC,cue,Log,Cover,3% Recovery record)
Size: 821 Mb

Track List:

CD 1:

1. Burn 8:15
2. Lady Luck 3:13
3. Gettin' Tighter 13:42
4. Love Child 5:49
5. Smoke on the Water/Georgia On My Mind 8:59
6. Lazy/The Grind (feat. organ & drum solos) 22:29

CD 2:

7. This Time Around 7:05
8. Tommy Bolin (guitar solo) 10:32
9. Stormbringer 10:27
10. Highway Star/Not Fade Away 7:16

Bonus Tracks:

11. I'm Going Down 7:30
12. Highway Star 5:34
13. Smoke on the Water 6:44
14. Georgia On My Mind 2:50








Line-up Musicians:

-Tommy Bolin / Guitar
-David Coverdale / Vocals
-Glenn Hughes / Bass, Vocals
-Jon Lord / Keyboards
-Ian Paice / Drums
Log EAC CD1:
Exact Audio Copy V0.99 prebeta 5 from 4. May 2009

Отчёт EAC об извлечении, выполненном 24. мая 2010, 1:35

Deep Purple / In Concert (King Biscuit Flower Hour)(Disc 1)

Дисковод: HL-DT-STDVDRAM GSA-H66N Adapter: 3 ID: 0

Режим чтения : Достоверность
Использование точного потока : Да
Отключение кэша аудио : Да
Использование указателей C2 : Нет

Коррекция смещения при чтении : 667
Способность читать области Lead-in и Lead-out : Нет
Заполнение пропущенных сэмплов тишиной : Да
Удаление блоков с тишиной в начале и конце : Нет
При вычислениях CRC использовались нулевые сэмплы : Да
Интерфейс : Встроенный Win32-интерфейс для Win NT/2000

Выходной формат : Внутренние WAV-операции
Формат сэмплов : 44.100 Гц; 16 бит; стерео


TOC извлечённого CD

Трек | Старт | Длительность | Начальный сектор | Конечный сектор
---------------------------------------------------------------------
1 | 0:00.00 | 8:15.25 | 0 | 37149
2 | 8:15.25 | 3:12.62 | 37150 | 51611
3 | 11:28.12 | 13:41.40 | 51612 | 113226
4 | 25:09.52 | 5:49.10 | 113227 | 139411
5 | 30:58.62 | 8:58.73 | 139412 | 179834
6 | 39:57.60 | 22:31.02 | 179835 | 281161


Характеристики диапазона извлечения и сообщения об ошибках

Выбранный диапазон

Имя файла J:\Deep Purple - in Concert(1976)[2CD]\Cd1\Deep Purple - In Concert (King Biscuit Flower Hour)(Disc 1).wav

Пиковый уровень 98.2 %
Качество диапазона 99.9 %
CRC копии 367199A9
Копирование... OK

Ошибок не произошло


AccurateRip: сводка

Трек 1 точное извлечение (доверие 7) [A7357325]
Трек 2 точное извлечение (доверие 7) [987111E8]
Трек 3 точное извлечение (доверие 7) [5A11EFAB]
Трек 4 точное извлечение (доверие 7) [FDFA3478]
Трек 5 точное извлечение (доверие 7) [D1D5F3AC]
Трек 6 точное извлечение (доверие 7) [207D8274]

Все треки извлечены точно

Конец отчёта
Log EAC CD2:
Exact Audio Copy V0.99 prebeta 5 from 4. May 2009

Отчёт EAC об извлечении, выполненном 24. мая 2010, 2:12

Deep Purple / In Concert (King Biscuit Flower Hour 1976) [Disc 2]

Дисковод: HL-DT-STDVDRAM GSA-H66N Adapter: 3 ID: 0

Режим чтения : Достоверность
Использование точного потока : Да
Отключение кэша аудио : Да
Использование указателей C2 : Нет

Коррекция смещения при чтении : 667
Способность читать области Lead-in и Lead-out : Нет
Заполнение пропущенных сэмплов тишиной : Да
Удаление блоков с тишиной в начале и конце : Нет
При вычислениях CRC использовались нулевые сэмплы : Да
Интерфейс : Встроенный Win32-интерфейс для Win NT/2000

Выходной формат : Внутренние WAV-операции
Формат сэмплов : 44.100 Гц; 16 бит; стерео


TOC извлечённого CD

Трек | Старт | Длительность | Начальный сектор | Конечный сектор
---------------------------------------------------------------------
1 | 0:00.00 | 7:05.25 | 0 | 31899
2 | 7:05.25 | 10:31.47 | 31900 | 79271
3 | 17:36.72 | 10:27.35 | 79272 | 126331
4 | 28:04.32 | 7:16.56 | 126332 | 159087
5 | 35:21.13 | 7:29.47 | 159088 | 192809
6 | 42:50.60 | 5:34.48 | 192810 | 217907
7 | 48:25.33 | 6:44.03 | 217908 | 248210
8 | 55:09.36 | 2:52.07 | 248211 | 261117


Характеристики диапазона извлечения и сообщения об ошибках

Выбранный диапазон

Имя файла J:\Deep Purple - King Biscuit Flower Hour Presents-1976(2CD)\Cd2\Deep Purple - In Concert (King Biscuit Flower Hour 1976) [Disc 2].wav

Пиковый уровень 98.0 %
Качество диапазона 100.0 %
CRC копии A3996761
Копирование... OK

Ошибок не произошло


AccurateRip: сводка

Трек 1 нет в базе данных
Трек 2 нет в базе данных
Трек 3 нет в базе данных
Трек 4 нет в базе данных
Трек 5 нет в базе данных
Трек 6 нет в базе данных
Трек 7 нет в базе данных
Трек 8 нет в базе данных

Ни одного трека нет в базе AccurateRip

Конец отчёта




Last edited by kelia99 on Sun Oct 03, 2010 2:35 am; edited 1 time in total

_________________
Fools all of us... Basketball
avatar
kelia99

Posts : 308
Join date : 2010-09-01
Age : 55

View user profile http://in-rock-lossless.moole.ru/

Back to top Go down

Re: Deep Purple - King Biscuit Flower Hour Presents-1976(2CD)live

Post by alonzo on Fri Sep 17, 2010 12:33 am

Зачооот.
avatar
alonzo

Posts : 82
Join date : 2010-09-02
Age : 57
Location : неподалеку

View user profile

Back to top Go down

View previous topic View next topic Back to top

- Similar topics

 
Permissions in this forum:
You cannot reply to topics in this forum