Yes(UK) - In a Word Yes 1969 - ? (5CD Boxset) - 2002

View previous topic View next topic Go down

Yes(UK) - In a Word Yes 1969 - ? (5CD Boxset) - 2002

Post by kelia99 on Fri Sep 17, 2010 12:20 am

Yes - In a Word Yes 1969 - ? (5CD Boxset) - 2002



Boxset/Compilation, released in 2002

In a Word: Yes (1969 - ) 5-ти дисковое издание, которое затрагивает полную музыкальную карьеру группы "Yes", с 1969 года по 2002, включая материал альбома "Anderson Bruford Wakeman Howe" 1986 года, при разнообразии некоторого , ранее неслышанного материала. Мои рекомендации, подборка песен составленна очень удачная. Лично мне очень нравится...

Origin: UK
Genre: Symphonic Prog /Art-rock
Quality: (FLAC,cue,Log,Cover,3% Recovery record)
Size: 5 CD - 2.67 Gb

Track List:

Disc I: 79:24



01. Every Little Thing - 5:46
02. Sweetness - 4:35
03. Survival - 6:20
04. Then - 5:47
05. Sweet Dreams - 3:51
06. Astral Traveller - 5:56
07. Time and a Word - 4:34
08. Dear Father - 4:13
09. Yours Is No Disgrace - 9:42
10. Clap - 3:24
11. Perpetual Change - 8:53
12. Starship Trooper: A. Life Seeker / B.... - 9:28
13. I've Seen All Good People: A. Your Move / B. - 6:55

Disc II: 78:15



01. Roundabout - 8:33
02. South Side of the Sky - 7:56
03. Heart of the Sunrise - 10:36
04. America - 10:31
05. Close to the Edge: The Solid Time of... - 18:38
06. The Revealing Science of God Dance of the... - 22:01

Disc III: 79:44



01. Siberian Khatru - 8:55
02. Long Distance Runaround - 3:33
03. The Gates of Delirium - 21:50
04. To Be Over - 9:07
05. Going for the One - 5:32
06. Turn of the Century - 7:41
07. Wonderous Stories - 3:49
08. Don't Kill the Whale - 3:56
09. Release, Release - 5:46
10. Arriving UFO - 6:02
11. Richard - 3:33

Disc IV: 76:47



01. Tango - 3:48
02. Never Done Before - 2:10
03. Crossfire - 2:42
04. Machine Messiah - 10:24
05. Tempus Fugit - 5:17
06. Owner of a Loneley Heart - 4:29
07. It Can Happen - 5:30
08. Leave It - 4:14
09. Hold On - 5:16
10. Rhythm of Love - 4:52
11. Love Will Find a Way - 4:50
12. Holy Lamb (Song for Harmonic Convergence) - 3:22
13. Brother of Mine: 1. The Big Dream /2.... - 10:18
14. Fist of Fire - 3:28
15. I Would Have Waited Forever - 7:02

Disc V: 78:37



01. Lift Me Up - 6:31
02. The Calling - 6:55
03. I Am Waiting - 7:25
04. Mind Drive - 18:38
05. Open Your Eyes - 5:14
06. Universal Garden - 6:17
07. Homeworld (The Ladder) - 9:35
08. The Messenger - 5:15
09. Last Train - 2:23
10. In the Presence of: Deeper / Death of Ego... - 10:24

Total Time: 392:47

Line-up Musicians:

- Jon Anderson / vocals
- Trevor Horn / vocals
- Chris Squire / bass and vocals
- Patrick Moraz / keyboards
- Geoff Downes / keyboards
- Tony Kaye / keyboards
- Rick Wakeman / keyboards
- Alan White / drums
- Bill Bruford / drums
- Peter Banks / guitars
- Trevor Rabin / guitars and vocals
- Steve Howe / guitars and vocals
- Billy Sherwood / guitars and vocals
- Igor Khoroshev / keyboards

Releases information
Elektra/Rhino 2002
Log EAC CD1:
Exact Audio Copy V0.99 prebeta 4 from 23. January 2008

Отчёт EAC об извлечении, выполненном 3. ноября 2009, 13:01

Yes / In a Word - Yes -- Disc 1

Дисковод: HL-DT-STDVDRAM GSA-H66N Adapter: 3 ID: 0

Режим чтения : Достоверность
Использование точного потока : Да
Отключение кэша аудио : Да
Использование указателей C2 : Нет

Коррекция смещения при чтении : 667
Способность читать области Lead-in и Lead-out : Нет
Заполнение пропущенных сэмплов тишиной : Да
Удаление блоков с тишиной в начале и конце : Нет
При вычислениях CRC использовались нулевые сэмплы : Да
Интерфейс : Встроенный Win32-интерфейс для Win NT/2000

Выходной формат : Внутренние WAV-операции
Формат сэмплов : 44.100 Гц; 16 бит; стерео


TOC извлечённого CD

Трек | Старт | Длительность | Начальный сектор | Конечный сектор
---------------------------------------------------------------------
1 | 0:00.00 | 5:46.40 | 0 | 25989
2 | 5:46.40 | 4:35.00 | 25990 | 46614
3 | 10:21.40 | 6:20.50 | 46615 | 75164
4 | 16:42.15 | 5:47.57 | 75165 | 101246
5 | 22:29.72 | 3:51.35 | 101247 | 118606
6 | 26:21.32 | 5:56.65 | 118607 | 145371
7 | 32:18.22 | 4:34.40 | 145372 | 165961
8 | 36:52.62 | 4:13.40 | 165962 | 184976
9 | 41:06.27 | 9:42.50 | 184977 | 228676
10 | 50:49.02 | 3:24.05 | 228677 | 243981
11 | 54:13.07 | 8:53.13 | 243982 | 283969
12 | 63:06.20 | 9:28.32 | 283970 | 326601
13 | 72:34.52 | 6:55.48 | 326602 | 357774


Характеристики диапазона извлечения и сообщения об ошибках

Выбранный диапазон

Имя файла J:\YES-1\Yes - In a Word - Yes -- Disc 1.wav

Пиковый уровень 98.8 %
Качество диапазона 100.0 %
CRC копии F8B215E3
Копирование... OK

Ошибок не произошло


AccurateRip: сводка

Трек 1 точное извлечение (доверие 3) [CCD85A0A]
Трек 2 точное извлечение (доверие 3) [6EEDE67C]
Трек 3 точное извлечение (доверие 3) [6CCA47A9]
Трек 4 точное извлечение (доверие 3) [CD5102DD]
Трек 5 точное извлечение (доверие 3) [A8D2CB93]
Трек 6 точное извлечение (доверие 3) [B1FE2ACB]
Трек 7 точное извлечение (доверие 3) [5AAB34F6]
Трек 8 точное извлечение (доверие 3) [0E5F5FC0]
Трек 9 точное извлечение (доверие 3) [A9D57FFC]
Трек 10 точное извлечение (доверие 3) [DDEF1DCB]
Трек 11 точное извлечение (доверие 3) [CC1DF274]
Трек 12 точное извлечение (доверие 3) [9D0D463B]
Трек 13 точное извлечение (доверие 3) [6264B65F]

Все треки извлечены точно

Конец отчёта
Log EAC CD2:
Exact Audio Copy V0.99 prebeta 4 from 23. January 2008

Отчёт EAC об извлечении, выполненном 3. ноября 2009, 14:45

Yes / In A Word: Yes (1969-...) (CD2)

Дисковод: HL-DT-STDVDRAM GSA-H66N Adapter: 3 ID: 0

Режим чтения : Достоверность
Использование точного потока : Да
Отключение кэша аудио : Да
Использование указателей C2 : Нет

Коррекция смещения при чтении : 667
Способность читать области Lead-in и Lead-out : Нет
Заполнение пропущенных сэмплов тишиной : Да
Удаление блоков с тишиной в начале и конце : Нет
При вычислениях CRC использовались нулевые сэмплы : Да
Интерфейс : Встроенный Win32-интерфейс для Win NT/2000

Выходной формат : Внутренние WAV-операции
Формат сэмплов : 44.100 Гц; 16 бит; стерео


TOC извлечённого CD

Трек | Старт | Длительность | Начальный сектор | Конечный сектор
---------------------------------------------------------------------
1 | 0:00.00 | 8:33.25 | 0 | 38499
2 | 8:33.25 | 7:56.12 | 38500 | 74211
3 | 16:29.37 | 10:36.50 | 74212 | 121961
4 | 27:06.12 | 10:31.20 | 121962 | 169306
5 | 37:37.32 | 18:38.58 | 169307 | 253214
6 | 56:16.15 | 22:01.27 | 253215 | 352316


Характеристики диапазона извлечения и сообщения об ошибках

Выбранный диапазон

Имя файла J:\Yes-2\Yes - In A Word Yes (1969-...) (CD2).wav

Пиковый уровень 100.0 %
Качество диапазона 100.0 %
CRC теста 666FAF56
CRC копии 666FAF56
Копирование... OK

Ошибок не произошло


AccurateRip: сводка

Трек 1 точное извлечение (доверие 3) [C45EC108]
Трек 2 точное извлечение (доверие 3) [DEA980D1]
Трек 3 точное извлечение (доверие 3) [8865F842]
Трек 4 точное извлечение (доверие 3) [504D8D0C]
Трек 5 точное извлечение (доверие 3) [24793011]
Трек 6 точное извлечение (доверие 3) [60D3EAB8]

Все треки извлечены точно

Конец отчёта
Log EAC CD3:
Exact Audio Copy V0.99 prebeta 4 from 23. January 2008

Отчёт EAC об извлечении, выполненном 3. ноября 2009, 17:17

Yes / In A Word (Disc 3)

Дисковод: HL-DT-STDVDRAM GSA-H66N Adapter: 3 ID: 0

Режим чтения : Достоверность
Использование точного потока : Да
Отключение кэша аудио : Да
Использование указателей C2 : Нет

Коррекция смещения при чтении : 667
Способность читать области Lead-in и Lead-out : Нет
Заполнение пропущенных сэмплов тишиной : Да
Удаление блоков с тишиной в начале и конце : Нет
При вычислениях CRC использовались нулевые сэмплы : Да
Интерфейс : Встроенный Win32-интерфейс для Win NT/2000

Выходной формат : Внутренние WAV-операции
Формат сэмплов : 44.100 Гц; 16 бит; стерео


TOC извлечённого CD

Трек | Старт | Длительность | Начальный сектор | Конечный сектор
---------------------------------------------------------------------
1 | 0:00.00 | 8:56.45 | 0 | 40244
2 | 8:56.45 | 3:33.10 | 40245 | 56229
3 | 12:29.55 | 21:50.20 | 56230 | 154499
4 | 34:20.00 | 9:07.47 | 154500 | 195571
5 | 43:27.47 | 5:32.15 | 195572 | 220486
6 | 48:59.62 | 7:41.58 | 220487 | 255119
7 | 56:41.45 | 3:49.15 | 255120 | 272309
8 | 60:30.60 | 3:56.62 | 272310 | 290071
9 | 64:27.47 | 5:46.38 | 290072 | 316059
10 | 70:14.10 | 6:02.60 | 316060 | 343269
11 | 76:16.70 | 3:33.67 | 343270 | 359311


Характеристики диапазона извлечения и сообщения об ошибках

Выбранный диапазон

Имя файла J:\Yes - In a Word Yes (1969 - ) - Disc 3 (2002)\Yes - In A Word (Disc 3).wav

Пиковый уровень 100.0 %
Качество диапазона 100.0 %
CRC копии 5FBE3E23
Копирование... OK

Ошибок не произошло


AccurateRip: сводка

Трек 1 точное извлечение (доверие 3) [E5687F0D]
Трек 2 точное извлечение (доверие 3) [584988EE]
Трек 3 точное извлечение (доверие 3) [2D778D44]
Трек 4 точное извлечение (доверие 3) [84B57BEC]
Трек 5 точное извлечение (доверие 3) [D42AD27A]
Трек 6 точное извлечение (доверие 3) [CE4007B3]
Трек 7 точное извлечение (доверие 3) [CF62583C]
Трек 8 точное извлечение (доверие 3) [F9AF6BC3]
Трек 9 точное извлечение (доверие 3) [2F6A2A84]
Трек 10 точное извлечение (доверие 3) [07F65D10]
Трек 11 точное извлечение (доверие 3) [5A5844EA]

Все треки извлечены точно

Конец отчёта
Log EAC CD4:
Exact Audio Copy V0.99 prebeta 4 from 23. January 2008

Отчёт EAC об извлечении, выполненном 3. ноября 2009, 19:09

Yes / In a Word - Yes -- Disc 4

Дисковод: HL-DT-STDVDRAM GSA-H66N Adapter: 3 ID: 0

Режим чтения : Достоверность
Использование точного потока : Да
Отключение кэша аудио : Да
Использование указателей C2 : Нет

Коррекция смещения при чтении : 667
Способность читать области Lead-in и Lead-out : Нет
Заполнение пропущенных сэмплов тишиной : Да
Удаление блоков с тишиной в начале и конце : Нет
При вычислениях CRC использовались нулевые сэмплы : Да
Интерфейс : Встроенный Win32-интерфейс для Win NT/2000

Выходной формат : Внутренние WAV-операции
Формат сэмплов : 44.100 Гц; 16 бит; стерео


TOC извлечённого CD

Трек | Старт | Длительность | Начальный сектор | Конечный сектор
---------------------------------------------------------------------
1 | 0:00.00 | 3:48.40 | 0 | 17139
2 | 3:48.40 | 2:10.15 | 17140 | 26904
3 | 5:58.55 | 2:42.10 | 26905 | 39064
4 | 8:40.65 | 10:24.37 | 39065 | 85901
5 | 19:05.27 | 5:17.00 | 85902 | 109676
6 | 24:22.27 | 4:29.00 | 109677 | 129851
7 | 28:51.27 | 5:30.15 | 129852 | 154616
8 | 34:21.42 | 4:14.33 | 154617 | 173699
9 | 38:36.00 | 5:16.40 | 173700 | 197439
10 | 43:52.40 | 4:52.72 | 197440 | 219411
11 | 48:45.37 | 4:50.60 | 219412 | 241221
12 | 53:36.22 | 3:22.48 | 241222 | 256419
13 | 56:58.70 | 10:18.70 | 256420 | 302839
14 | 67:17.65 | 3:28.37 | 302840 | 318476
15 | 70:46.27 | 7:02.23 | 318477 | 350149


Характеристики диапазона извлечения и сообщения об ошибках

Выбранный диапазон

Имя файла J:\Yes - In a Word Yes (1969 - ) - Disc 4 (2002)\Yes - In a Word - Yes -- Disc 4.wav

Пиковый уровень 100.0 %
Качество диапазона 100.0 %
CRC копии 21DF0175
Копирование... OK

Ошибок не произошло


AccurateRip: сводка

Трек 1 точное извлечение (доверие 3) [A968A12B]
Трек 2 точное извлечение (доверие 3) [31082D82]
Трек 3 точное извлечение (доверие 3) [87EE9F06]
Трек 4 точное извлечение (доверие 3) [043CA4A8]
Трек 5 точное извлечение (доверие 3) [452E1E78]
Трек 6 точное извлечение (доверие 3) [A6BF05B4]
Трек 7 точное извлечение (доверие 3) [34EA8BF5]
Трек 8 точное извлечение (доверие 3) [EF7AC756]
Трек 9 точное извлечение (доверие 3) [8ADDBE35]
Трек 10 точное извлечение (доверие 3) [EE0F329F]
Трек 11 точное извлечение (доверие 3) [89CA88C8]
Трек 12 точное извлечение (доверие 3) [6187E3C7]
Трек 13 точное извлечение (доверие 3) [139D25BE]
Трек 14 точное извлечение (доверие 3) [485C3F75]
Трек 15 точное извлечение (доверие 3) [7122D006]

Все треки извлечены точно

Конец отчёта
Log EAC CD5:
Exact Audio Copy V0.99 prebeta 4 from 23. January 2008

Отчёт EAC об извлечении, выполненном 3. ноября 2009, 18:33

Yes / In A Word: Yes (1969-...) (CD5)

Дисковод: HL-DT-STDVDRAM GSA-H66N Adapter: 3 ID: 0

Режим чтения : Достоверность
Использование точного потока : Да
Отключение кэша аудио : Да
Использование указателей C2 : Нет

Коррекция смещения при чтении : 667
Способность читать области Lead-in и Lead-out : Нет
Заполнение пропущенных сэмплов тишиной : Да
Удаление блоков с тишиной в начале и конце : Нет
При вычислениях CRC использовались нулевые сэмплы : Да
Интерфейс : Встроенный Win32-интерфейс для Win NT/2000

Выходной формат : Внутренние WAV-операции
Формат сэмплов : 44.100 Гц; 16 бит; стерео


TOC извлечённого CD

Трек | Старт | Длительность | Начальный сектор | Конечный сектор
---------------------------------------------------------------------
1 | 0:00.00 | 6:31.52 | 0 | 29376
2 | 6:31.52 | 6:55.60 | 29377 | 60561
3 | 13:27.37 | 7:25.50 | 60562 | 93986
4 | 20:53.12 | 18:38.00 | 93987 | 177836
5 | 39:31.12 | 5:14.15 | 177837 | 201401
6 | 44:45.27 | 6:17.35 | 201402 | 229711
7 | 51:02.62 | 9:35.05 | 229712 | 272841
8 | 60:37.67 | 5:15.25 | 272842 | 296491
9 | 65:53.17 | 2:23.50 | 296492 | 307266
10 | 68:16.67 | 10:25.00 | 307267 | 354141


Характеристики диапазона извлечения и сообщения об ошибках

Выбранный диапазон

Имя файла J:\Yes - In a Word Yes (1969 - ) - Disc 5 (2002)\Yes - In A Word Yes (1969-...) (CD5).wav

Пиковый уровень 99.7 %
Качество диапазона 100.0 %
CRC копии 9828DB39
Копирование... OK

Ошибок не произошло


AccurateRip: сводка

Трек 1 точное извлечение (доверие 3) [D41DB926]
Трек 2 точное извлечение (доверие 3) [59BDA5CA]
Трек 3 точное извлечение (доверие 3) [0687BFE5]
Трек 4 точное извлечение (доверие 3) [292E6AD3]
Трек 5 точное извлечение (доверие 3) [7741AF04]
Трек 6 точное извлечение (доверие 3) [09F06955]
Трек 7 точное извлечение (доверие 3) [E8A08495]
Трек 8 точное извлечение (доверие 3) [D6096CF6]
Трек 9 точное извлечение (доверие 3) [E03EE0F3]
Трек 10 точное извлечение (доверие 3) [6BBE272D]

Все треки извлечены точно

Конец отчёта

_________________
Fools all of us... Basketball
avatar
kelia99

Posts : 308
Join date : 2010-09-01
Age : 55

View user profile http://in-rock-lossless.moole.ru/

Back to top Go down

View previous topic View next topic Back to top

- Similar topics

 
Permissions in this forum:
You cannot reply to topics in this forum