Tal Wilkenfeld(Australia) - Transformation (2007)

View previous topic View next topic Go down

Tal Wilkenfeld(Australia) - Transformation (2007)

Post by kelia99 on Fri Sep 17, 2010 12:09 am

Tal Wilkenfeld - Transformation (2007)





Origin:
Genre: jazz, blues-rock, jazz fusion, free funk
Quality: (FLAC,cue,Log,Front,3% Recovery record)
Size:388 Mb


Tal Wilkenfeld
Transformation
(Available through www.theplanetcompany.com)

Tal Wilkenfeld is an Australian electric bassist and composer and Transformation is her first album release as leader. She’s resided in New York for the last five years, a factor which is very present in the music given that all the players also live there and the music was recorded there. Whether you call it fusion, jazz funk, jazz rock, electric jazz or any other name, this album is in that ball park and takes its cue from leading New York fusion artists such as Steps Ahead, Mike Stern/Bob Berg projects and the bands of Wayne Krantz.

As a bassist, I could hear traces of Marcus Miller, Anthony Jackson, Jaco Pastorius and Richard Bona. But it wasn’t just mimicry – Tal makes these things her own. Even though each composition has its own identity the album has definite parameters. There’s no hint of a world music or exotica element to the writing and playing as there is in a lot of fusion music released post-Weather Report. There’s a certain NYC stripped-back directness, a rawness to the music that nevertheless has an optimistic vibe about it overall.

Of the seven tracks, five are mid- to up-tempo funky compositions that nearly always have a twist and three or four sections to them. The music’s well conceived and very clear in its intention and execution. All the players on the album with Tal are monster players and live up to their considerable reputations in amongst her music.

I’ve often enjoyed albums made by bassist/composers because they tend to share the melody playing and solos around more than albums by guitarists and horn players, who tend to play 90 percent of the melodies and solo on pretty much every tune. Tal plays a couple of melodies here and there and takes a few solos but I didn’t get the feeling that this album is only about bass prowess at all. (Thank Gawd!) The fact that she has equally strong ability as a player and as a writer is a big, big plus. All players get a good slice of the action and everybody’s recorded well and are nicely present in the mix.

Transformation is a very cool first album, be it from someone of any age or gender, but the fact that it’s from the head, hands and heart of a 21-year-old woman does add a little extra. Firstly because it’s impressive that a 21-year-old is holding her own in such company and secondly because when thinking of good female bassists the list of names runs out pretty quickly after Carol Kaye and M’Shell Ndegeocello. I look forward to hearing a lot from Tal in the years to come.

Track List:

01. BC
02. Cosmic Joke
03. Truth Be Told
04. Serendipity
05. The River Of Life
06. Oatmeal Bandage
07. Table For One



Total Time: 48:38

Line-up Musicians:

-Tal Wilkenfeld / bass
-Wayne Krantz / guitar
-Seamus Blake / tenor sax
-Geoff Keezer / piano
-Keith Carlock / drums

Guest appearances by percussionist Samuel Torres and Bassist Oteil Burbridge

Log File:
Exact Audio Copy V0.99 prebeta 5 from 4. May 2009

Отчёт EAC об извлечении, выполненном 7. июня 2010, 13:24

Tal Wilkenfeld / Transformation (2007)

Дисковод: HL-DT-STDVDRAM GSA-H66N Adapter: 3 ID: 0

Режим чтения : Достоверность
Использование точного потока : Да
Отключение кэша аудио : Да
Использование указателей C2 : Нет

Коррекция смещения при чтении : 667
Способность читать области Lead-in и Lead-out : Нет
Заполнение пропущенных сэмплов тишиной : Да
Удаление блоков с тишиной в начале и конце : Нет
При вычислениях CRC использовались нулевые сэмплы : Да
Интерфейс : Встроенный Win32-интерфейс для Win NT/2000

Выходной формат : Внутренние WAV-операции
Формат сэмплов : 44.100 Гц; 16 бит; стерео


TOC извлечённого CD

Трек | Старт | Длительность | Начальный сектор | Конечный сектор
---------------------------------------------------------------------
1 | 0:00.00 | 6:21.59 | 0 | 28633
2 | 6:21.59 | 6:25.40 | 28634 | 57548
3 | 12:47.24 | 6:40.74 | 57549 | 87622
4 | 19:28.23 | 5:02.32 | 87623 | 110304
5 | 24:30.55 | 7:44.27 | 110305 | 145131
6 | 32:15.07 | 7:53.37 | 145132 | 180643
7 | 40:08.44 | 8:30.16 | 180644 | 218909


Характеристики диапазона извлечения и сообщения об ошибках

Выбранный диапазон

Имя файла J:Tal Wilkenfeld - Transformation (2007)Tal Wilkenfeld - Transformation (2007).wav

Пиковый уровень 98.8 %
Качество диапазона 100.0 %
CRC копии 19B78965
Копирование... OK

Ошибок не произошло


AccurateRip: сводка

Трек 1 точное извлечение (доверие 23) [64A80E70]
Трек 2 точное извлечение (доверие 23) [9D225DC5]
Трек 3 точное извлечение (доверие 23) [B63FE932]
Трек 4 точное извлечение (доверие 23) [F9499AD0]
Трек 5 точное извлечение (доверие 23) [BB30C1BD]
Трек 6 точное извлечение (доверие 23) [5B4A9DC3]
Трек 7 точное извлечение (доверие 23) [16839854]

Все треки извлечены точно

Конец отчёта



Last edited by kelia99 on Sun Oct 03, 2010 3:32 am; edited 1 time in total

_________________
Fools all of us... Basketball
avatar
kelia99

Posts : 308
Join date : 2010-09-01
Age : 55

View user profile http://in-rock-lossless.moole.ru/

Back to top Go down

Re: Tal Wilkenfeld(Australia) - Transformation (2007)

Post by Musicgate on Fri Sep 17, 2010 2:33 am

замечательный диск, рекомендую fusion-head'ам
avatar
Musicgate
Аксакал
Аксакал

Posts : 1018
Join date : 2010-09-01

View user profile

Back to top Go down

Re: Tal Wilkenfeld(Australia) - Transformation (2007)

Post by Fusion_Brasil on Fri Sep 17, 2010 4:19 am

My babe!

I love that girl.... with the bass or not! Twisted Evil

_________________
I read Playboy for the same reason I read National Geographic: I like to see photos of places that I know I'll never visit. What a Face

Fusion_Brasil

Posts : 37
Join date : 2010-09-02

View user profile

Back to top Go down

Re: Tal Wilkenfeld(Australia) - Transformation (2007)

Post by Sponsored content


Sponsored content


Back to top Go down

View previous topic View next topic Back to top

- Similar topics

 
Permissions in this forum:
You cannot reply to topics in this forum